Index
# A B C D E F G H I J K L M N O P Q R S T U V W Y Z
Tags
Language
Tags

Featured TV Shows


Mr. Robot S02E11

Posted By: Tavaz
1080p (FullHD) / BDRip IMDb
Mr. Robot S02E11

Mr. Robot S02E11
BDRip | MKV | 1920x1080 | English | H265 @ 3357 kbps | AC-3 @ 448 kbps | 47 min 8 s | 1.26 GiB
Subtitles: English
Genre: Crime, Drama


A contemporary and culturally resonant drama about a young programmer, Elliot, who suffers from a debilitating anti-social disorder and decides that he can only connect to people by hacking them. He wields his skills as a weapon to protect the people that he cares about. Elliot will find himself in the intersection between a cybersecurity firm he works for and the underworld organizations that are recruiting him to bring down corporate America.

461bdeb75de4a63d34922b6e91957e39.mkv (1.3 GB)



General
Unique ID : 241017481404217530085364016174223348763 (0xB5524748DFB89CFEB444907D7988541B)
Complete name : ./461bdeb75de4a63d34922b6e91957e39.mkv
Format : Matroska
Format version : Version 2
File size : 1.26 GiB
Duration : 47 min 8 s
Overall bit rate : 3 817 kb/s
Movie name : Mr.Robot.S02E11.BluRay.10Bit.1080p.DD5.1.H265-d3g
Encoded date : UTC 2020-04-03 17:49:12
Writing application : DVDFab 10.0.9.2
Writing library : libebml v1.3.4 + libmatroska v1.4.5

Video
ID : 1
Format : HEVC
Format/Info : High Efficiency Video Coding
Format profile : Main 10@L4@Main
Codec ID : V_MPEGH/ISO/HEVC
Duration : 47 min 7 s
Bit rate : 3 358 kb/s
Width : 1 920 pixels
Height : 1 080 pixels
Display aspect ratio : 16:9
Frame rate mode : Constant
Frame rate : 23.976 (24000/1001) FPS
Color space : YUV
Chroma subsampling : 4:2:0
Bit depth : 10 bits
Bits/(Pixel*Frame) : 0.068
Stream size : 1.11 GiB (88%)
Default : Yes
Forced : No
Color range : Limited
Color primaries : BT.709
Transfer characteristics : BT.709
Matrix coefficients : BT.709

Audio
ID : 2
Format : AC-3
Format/Info : Audio Coding 3
Format settings, Endianness : Big
Codec ID : A_AC3
Duration : 47 min 8 s
Bit rate mode : Constant
Bit rate : 448 kb/s
Channel(s) : 6 channels
Channel positions : Front: L C R, Side: L R, LFE
Sampling rate : 48.0 kHz
Frame rate : 31.250 FPS (1536 SPF)
Bit depth : 16 bits
Compression mode : Lossy
Stream size : 151 MiB (12%)
Language : English
Service kind : Complete Main
Default : Yes
Forced : No

Text
ID : 3
Format : VobSub
Codec ID : S_VOBSUB
Codec ID/Info : Picture based subtitle format used on DVDs
Duration : 46 min 24 s
Bit rate : 9 473 b/s
Count of elements : 641
Stream size : 3.15 MiB (0%)
Language : English
Default : Yes
Forced : No

Menu
00:00:00.000 : en:Chapter 1
00:09:16.347 : en:Chapter 2
00:22:53.580 : en:Chapter 3
00:34:58.054 : en:Chapter 4





Mr. Robot S02E11


Mr. Robot S02E11


Mr. Robot S02E11


Mr. Robot S02E11


Mr. Robot S02E11

All episodes