Index
# A B C D E F G H I J K L M N O P Q R S T U V W Y Z
Tags
Language
Tags

Featured TV Shows


Mr. Robot S03E02

Posted By: Tavaz
1080p (FullHD) / BDRip IMDb
Mr. Robot S03E02

Mr. Robot S03E02
BluRay Remux | MKV | 1920x1080 | English | H264 @ 30518 kbps | DTS | 47 min 5 s | 11.3 GiB
Subtitles: Spanish, French, English
Genre: Crime, Drama

A contemporary and culturally resonant drama about a young programmer, Elliot, who suffers from a debilitating anti-social disorder and decides that he can only connect to people by hacking them. He wields his skills as a weapon to protect the people that he cares about. Elliot will find himself in the intersection between a cybersecurity firm he works for and the underworld organizations that are recruiting him to bring down corporate America.

bf45805e3c3a4a5ea0306213a5502634.mkv (11.3 GB)



General
Unique ID : 72257389213843884416745736824908289743 (0x365C44576D1DEB4C55748291269616CF)
Complete name : ./bf45805e3c3a4a5ea0306213a5502634.mkv
Format : Matroska
Format version : Version 4 / Version 2
File size : 11.3 GiB
Duration : 47 min 5 s
Overall bit rate mode : Variable
Overall bit rate : 34.5 Mb/s
Encoded date : UTC 2018-03-18 08:10:28
Writing application : mkvmerge v21.0.0 ('Tardigrades Will Inherit The Earth') 64-bit
Writing library : libebml v1.3.5 + libmatroska v1.4.8

Video
ID : 1
Format : AVC
Format/Info : Advanced Video Codec
Format profile : High@L4.1
Format settings : CABAC / 4 Ref Frames
Format settings, CABAC : Yes
Format settings, RefFrames : 4 frames
Codec ID : V_MPEG4/ISO/AVC
Duration : 47 min 5 s
Bit rate mode : Variable
Bit rate : 30.5 Mb/s
Maximum bit rate : 35.0 Mb/s
Width : 1 920 pixels
Height : 1 080 pixels
Display aspect ratio : 16:9
Frame rate mode : Constant
Frame rate : 23.976 (24000/1001) FPS
Color space : YUV
Chroma subsampling : 4:2:0
Bit depth : 8 bits
Scan type : Progressive
Bits/(Pixel*Frame) : 0.614
Stream size : 10.0 GiB (89%)
Title : MPEG-4 AVC Video / 30998 kbps / 1080p / 23.976 fps / 16:9 / High Profile 4.1
Language : English
Default : Yes
Forced : No

Audio
ID : 2
Format : DTS
Format/Info : Digital Theater Systems
Format profile : MA / Core
Mode : 16
Format settings, Endianness : Big
Codec ID : A_DTS
Duration : 47 min 5 s
Bit rate mode : Variable / Constant
Bit rate : 3 840 kb/s / 1 509 kb/s
Channel(s) : 6 channels
Channel positions : Front: L C R, Side: L R, LFE
Sampling rate : 48.0 kHz
Frame rate : 93.750 FPS (512 SPF)
Bit depth : 24 bits
Compression mode : Lossless / Lossy
Stream size : 1.25 GiB (11%)
Title : DTS-HD Master Audio / 5.1 / 48 kHz / 2476 kbps / 24-bit
Language : English
Default : Yes
Forced : No

Text #1
ID : 3
Format : PGS
Codec ID : S_HDMV/PGS
Codec ID/Info : Picture based subtitle format used on BDs/HD-DVDs
Duration : 46 min 26 s
Bit rate : 49.0 kb/s
Count of elements : 1436
Stream size : 16.3 MiB (0%)
Title : SDH
Language : English
Default : No
Forced : No

Text #2
ID : 4
Format : PGS
Codec ID : S_HDMV/PGS
Codec ID/Info : Picture based subtitle format used on BDs/HD-DVDs
Duration : 47 min 0 s
Bit rate : 40.1 kb/s
Count of elements : 1216
Stream size : 13.5 MiB (0%)
Language : French
Default : No
Forced : No

Text #3
ID : 5
Format : PGS
Codec ID : S_HDMV/PGS
Codec ID/Info : Picture based subtitle format used on BDs/HD-DVDs
Duration : 47 min 2 s
Bit rate : 38.7 kb/s
Count of elements : 1362
Stream size : 13.0 MiB (0%)
Title : Latin American
Language : Spanish
Default : No
Forced : No

Menu
00:00:00.000 : en:Chapter 1
00:08:42.021 : en:Chapter 2
00:26:01.018 : en:Chapter 3
00:39:59.939 : en:Chapter 4





Mr. Robot S03E02


Mr. Robot S03E02


Mr. Robot S03E02


Mr. Robot S03E02


Mr. Robot S03E02

All episodes