Index
# A B C D E F G H I J K L M N O P Q R S T U V W Y Z
Tags
Language
Tags

Featured TV Shows


Mr. Robot S03E06

Posted By: Tavaz
1080p (FullHD) / BDRip IMDb
Mr. Robot S03E06

Mr. Robot S03E06
BluRay Remux | MKV | 1920x1080 | English | H264 @ 25847 kbps | DTS | 45 min 39 s | 9.58 GiB
Subtitles: Spanish, French, English
Genre: Crime, Drama

A contemporary and culturally resonant drama about a young programmer, Elliot, who suffers from a debilitating anti-social disorder and decides that he can only connect to people by hacking them. He wields his skills as a weapon to protect the people that he cares about. Elliot will find himself in the intersection between a cybersecurity firm he works for and the underworld organizations that are recruiting him to bring down corporate America.

8e5157131642484fa64f21e85e542c53.mkv (9.6 GB)



General
Unique ID : 184922304324188430942832971143218890324 (0x8B1EBD8627DF95AF1689018D2A6E8654)
Complete name : ./8e5157131642484fa64f21e85e542c53.mkv
Format : Matroska
Format version : Version 4 / Version 2
File size : 9.58 GiB
Duration : 45 min 39 s
Overall bit rate mode : Variable
Overall bit rate : 30.0 Mb/s
Encoded date : UTC 2018-03-18 08:21:45
Writing application : mkvmerge v21.0.0 ('Tardigrades Will Inherit The Earth') 64-bit
Writing library : libebml v1.3.5 + libmatroska v1.4.8

Video
ID : 1
Format : AVC
Format/Info : Advanced Video Codec
Format profile : High@L4.1
Format settings : CABAC / 4 Ref Frames
Format settings, CABAC : Yes
Format settings, RefFrames : 4 frames
Codec ID : V_MPEG4/ISO/AVC
Duration : 45 min 39 s
Bit rate mode : Variable
Bit rate : 25.8 Mb/s
Maximum bit rate : 35.0 Mb/s
Width : 1 920 pixels
Height : 1 080 pixels
Display aspect ratio : 16:9
Frame rate mode : Constant
Frame rate : 23.976 (24000/1001) FPS
Color space : YUV
Chroma subsampling : 4:2:0
Bit depth : 8 bits
Scan type : Progressive
Bits/(Pixel*Frame) : 0.520
Stream size : 8.24 GiB (86%)
Title : MPEG-4 AVC Video / 25658 kbps / 1080p / 23.976 fps / 16:9 / High Profile 4.1
Language : English
Default : Yes
Forced : No

Audio
ID : 2
Format : DTS
Format/Info : Digital Theater Systems
Format profile : MA / Core
Mode : 16
Format settings, Endianness : Big
Codec ID : A_DTS
Duration : 45 min 39 s
Bit rate mode : Variable / Constant
Bit rate : 4 064 kb/s / 1 509 kb/s
Channel(s) : 6 channels
Channel positions : Front: L C R, Side: L R, LFE
Sampling rate : 48.0 kHz
Frame rate : 93.750 FPS (512 SPF)
Bit depth : 24 bits
Compression mode : Lossless / Lossy
Stream size : 1.30 GiB (14%)
Title : DTS-HD Master Audio / 5.1 / 48 kHz / 3723 kbps / 24-bit
Language : English
Default : Yes
Forced : No

Text #1
ID : 3
Format : PGS
Codec ID : S_HDMV/PGS
Codec ID/Info : Picture based subtitle format used on BDs/HD-DVDs
Duration : 45 min 34 s
Bit rate : 40.8 kb/s
Count of elements : 1206
Stream size : 13.3 MiB (0%)
Title : SDH
Language : English
Default : No
Forced : No

Text #2
ID : 4
Format : PGS
Codec ID : S_HDMV/PGS
Codec ID/Info : Picture based subtitle format used on BDs/HD-DVDs
Duration : 45 min 36 s
Bit rate : 33.6 kb/s
Count of elements : 1012
Stream size : 10.9 MiB (0%)
Language : French
Default : No
Forced : No

Text #3
ID : 5
Format : PGS
Codec ID : S_HDMV/PGS
Codec ID/Info : Picture based subtitle format used on BDs/HD-DVDs
Duration : 45 min 36 s
Bit rate : 36.2 kb/s
Count of elements : 1129
Stream size : 11.8 MiB (0%)
Title : Latin American
Language : Spanish
Default : No
Forced : No

Menu
00:00:00.000 : en:Chapter 1
00:01:34.469 : en:Chapter 2
00:16:26.527 : en:Chapter 3
00:34:44.666 : en:Chapter 4





Mr. Robot S03E06


Mr. Robot S03E06


Mr. Robot S03E06


Mr. Robot S03E06


Mr. Robot S03E06

All episodes