Featured TV Shows


Mr. Robot S03E09

Posted By: Tavaz
SD / WEB-DL IMDb
Mr. Robot S03E09

Mr. Robot S03E09
WEB-DL | MKV | 720x406 | French | H264 @ 393 kbps | AAC @ 160 kbps | 46 min 36 s | 185 MiB
Subtitles: French
Genre: Crime, Drame

Elliot est un jeune programmeur anti-social qui souffre d'un trouble du comportement qui le pousse à croire qu'il ne peut rencontrer des gens qu'en les hackant. Il travaille pour une firme spécialisée dans la cyber-sécurité mais un homme connu sous le nom de Mr Robot l'approche un jour pour faire tomber une compagnie surpuissante qui fait partie de celles qu'il doit justement protéger…

Mr.Robot.S03E09.FRENCH.LD.AMZN.WEB-DL.x264-FRATERNiTY.mkv (185.5 MB)



General
Unique ID : 67868130845258116047067023807953122757 (0x330EED3225E1A3EC99F857037E6635C5)
Complete name : ./Mr.Robot.S03E09.FRENCH.LD.AMZN.WEB-DL.x264-FRATERNiTY.mkv
Format : Matroska
Format version : Version 4 / Version 2
File size : 185 MiB
Duration : 46 min 36 s
Overall bit rate : 556 kb/s
Movie name : Mr.Robot.S03E09.FRENCH.LD.AMZN.WEB-DL.x264-FRATERNiTY
Encoded date : UTC 2018-02-06 21:02:44
Writing application : mkvmerge v20.0.0 ('I Am The Sun') 64-bit
Writing library : libebml v1.3.5 + libmatroska v1.4.8

Video
ID : 1
Format : AVC
Format/Info : Advanced Video Codec
Format profile : High@L3.1
Format settings : CABAC / 5 Ref Frames
Format settings, CABAC : Yes
Format settings, RefFrames : 5 frames
Codec ID : V_MPEG4/ISO/AVC
Duration : 46 min 36 s
Bit rate : 394 kb/s
Width : 720 pixels
Height : 406 pixels
Display aspect ratio : 16:9
Frame rate mode : Constant
Frame rate : 25.000 FPS
Color space : YUV
Chroma subsampling : 4:2:0
Bit depth : 8 bits
Scan type : Progressive
Bits/(Pixel*Frame) : 0.054
Stream size : 131 MiB (71%)
Title : Mr.Robot.S03E09.FRENCH.LD.AMZN.WEB-DL.x264-FRATERNiTY
Writing library : x264 core 152 r2851 ba24899
Encoding settings : cabac=1 / ref=5 / deblock=1:0:0 / analyse=0x3:0x113 / me=hex / subme=9 / psy=1 / psy_rd=1.00:0.00 / mixed_ref=1 / me_range=16 / chroma_me=1 / trellis=1 / 8x8dct=1 / cqm=0 / deadzone=21,11 / fast_pskip=1 / chroma_qp_offset=-2 / threads=12 / lookahead_threads=1 / sliced_threads=0 / nr=0 / decimate=1 / interlaced=0 / bluray_compat=0 / constrained_intra=0 / bframes=3 / b_pyramid=2 / b_adapt=1 / b_bias=0 / direct=1 / weightb=1 / open_gop=0 / weightp=2 / keyint=250 / keyint_min=25 / scenecut=40 / intra_refresh=0 / rc_lookahead=50 / rc=crf / mbtree=1 / crf=19.0 / qcomp=0.60 / qpmin=0 / qpmax=69 / qpstep=4 / ip_ratio=1.40 / aq=1:1.00
Language : French
Default : Yes
Forced : No
Color range : Limited
Color primaries : BT.709
Transfer characteristics : BT.709
Matrix coefficients : BT.709

Audio
ID : 2
Format : AAC
Format/Info : Advanced Audio Codec
Format profile : LC
Codec ID : A_AAC-2
Duration : 46 min 36 s
Bit rate : 160 kb/s
Channel(s) : 2 channels
Channel positions : Front: L R
Sampling rate : 48.0 kHz
Frame rate : 46.875 FPS (1024 SPF)
Compression mode : Lossy
Delay relative to video : 20 ms
Stream size : 53.3 MiB (29%)
Title : Mr.Robot.S03E09.FRENCH.LD.AMZN.WEB-DL.x264-FRATERNiTY
Language : French
Default : Yes
Forced : No

Text
ID : 3
Format : UTF-8
Codec ID : S_TEXT/UTF8
Codec ID/Info : UTF-8 Plain Text
Duration : 46 min 1 s
Bit rate : 0 b/s
Count of elements : 8
Stream size : 182 Bytes (0%)
Title : French.Forced
Language : French
Default : Yes
Forced : Yes





Mr. Robot S03E09


Mr. Robot S03E09


Mr. Robot S03E09


Mr. Robot S03E09


Mr. Robot S03E09

All episodes