Index
# A B C D E F G H I J K L M N O P Q R S T U V W Y Z
Tags
Language
Tags

Featured TV Shows


Mr. Robot S04E02

Posted By: Tavaz
1080p (FullHD) / WEBRip IMDb
Mr. Robot S04E02

Mr. Robot S04E02
WEBRip | MKV | 1920x1080 | English | H264 @ 3800 kbps | AAC @ 96 kbps | 47 min 48 s | 1.30 GiB
Subtitles: English
Genre: Crime, Drama


A contemporary and culturally resonant drama about a young programmer, Elliot, who suffers from a debilitating anti-social disorder and decides that he can only connect to people by hacking them. He wields his skills as a weapon to protect the people that he cares about. Elliot will find himself in the intersection between a cybersecurity firm he works for and the underworld organizations that are recruiting him to bring down corporate America.

f021bf404aed409795d25d318aafb61b.mkv (1.3 GB)



General
Unique ID : 95893891305235717314874051243624805728 (0x48247DDE674655CF625E9A576D86B560)
Complete name : ./f021bf404aed409795d25d318aafb61b.mkv
Format : Matroska
Format version : Version 4 / Version 2
File size : 1.30 GiB
Duration : 47 min 48 s
Overall bit rate : 3 899 kb/s
Encoded date : UTC 2019-10-14 03:01:05
Writing application : mkvmerge v37.0.0 ('Leave It') 64-bit
Writing library : libebml v1.3.9 + libmatroska v1.5.2

Video
ID : 1
Format : AVC
Format/Info : Advanced Video Codec
Format profile : High@L4
Format settings : CABAC / 1 Ref Frames
Format settings, CABAC : Yes
Format settings, RefFrames : 1 frame
Codec ID : V_MPEG4/ISO/AVC
Duration : 47 min 48 s
Bit rate : 3 801 kb/s
Nominal bit rate : 4 200 kb/s
Width : 1 920 pixels
Height : 1 080 pixels
Display aspect ratio : 16:9
Frame rate mode : Constant
Frame rate : 23.976 (24000/1001) FPS
Color space : YUV
Chroma subsampling : 4:2:0
Bit depth : 8 bits
Scan type : Progressive
Bits/(Pixel*Frame) : 0.076
Stream size : 1.27 GiB (97%)
Writing library : x264 core 152
Encoding settings : cabac=1 / ref=1 / deblock=1:0:0 / analyse=0x3:0x113 / me=hex / subme=6 / psy=1 / psy_rd=1.00:0.00 / mixed_ref=0 / me_range=16 / chroma_me=0 / trellis=1 / 8x8dct=1 / cqm=0 / deadzone=21,11 / fast_pskip=1 / chroma_qp_offset=-2 / threads=8 / lookahead_threads=1 / sliced_threads=0 / nr=0 / decimate=1 / interlaced=0 / bluray_compat=0 / constrained_intra=0 / bframes=0 / weightp=2 / keyint=72 / keyint_min=25 / scenecut=0 / intra_refresh=0 / rc_lookahead=0 / rc=cbr / mbtree=0 / bitrate=4200 / ratetol=1.0 / qcomp=0.60 / qpmin=10 / qpmax=51 / qpstep=4 / vbv_maxrate=4200 / vbv_bufsize=1050 / nal_hrd=none / filler=0 / ip_ratio=1.40 / aq=1:1.00
Language : English
Default : Yes
Forced : No

Audio
ID : 2
Format : AAC
Format/Info : Advanced Audio Codec
Format profile : LC
Codec ID : A_AAC-2
Duration : 47 min 48 s
Bit rate : 96.0 kb/s
Channel(s) : 2 channels
Channel positions : Front: L R
Sampling rate : 44.1 kHz
Frame rate : 43.066 FPS (1024 SPF)
Compression mode : Lossy
Stream size : 32.7 MiB (2%)
Language : English
Default : Yes
Forced : No

Text
ID : 3
Format : UTF-8
Codec ID : S_TEXT/UTF8
Codec ID/Info : UTF-8 Plain Text
Duration : 47 min 21 s
Bit rate : 63 b/s
Count of elements : 1220
Stream size : 22.1 KiB (0%)
Title : English
Language : English
Default : No
Forced : No





Mr. Robot S04E02


Mr. Robot S04E02


Mr. Robot S04E02


Mr. Robot S04E02


Mr. Robot S04E02

All episodes