Index
# A B C D E F G H I J K L M N O P Q R S T U V W Y Z
Tags
Language
Tags

Featured TV Shows


Mr. Robot S04E03

Posted By: Tavaz
1080p (FullHD) / WEBRip IMDb
Mr. Robot S04E03

Mr. Robot S04E03
WEBRip | MKV | 1920x1080 | English | H264 @ 3983 kbps | AAC @ 96 kbps | 47 min 9 s | 1.34 GiB
Genre: Crime, Drama


A contemporary and culturally resonant drama about a young programmer, Elliot, who suffers from a debilitating anti-social disorder and decides that he can only connect to people by hacking them. He wields his skills as a weapon to protect the people that he cares about. Elliot will find himself in the intersection between a cybersecurity firm he works for and the underworld organizations that are recruiting him to bring down corporate America.

39f837e2bf77458eb0cdb4d5a2868d82.mkv (1.3 GB)



General
Unique ID : 323562170560622377006709536835979749663 (0xF36BCEAC383AD5F55635F1E42B98A91F)
Complete name : ./39f837e2bf77458eb0cdb4d5a2868d82.mkv
Format : Matroska
Format version : Version 4 / Version 2
File size : 1.34 GiB
Duration : 47 min 9 s
Overall bit rate : 4 082 kb/s
Encoded date : UTC 2019-10-21 03:06:11
Writing application : mkvmerge v24.0.0 ('Beyond The Pale') 64-bit
Writing library : libebml v1.3.6 + libmatroska v1.4.9

Video
ID : 1
Format : AVC
Format/Info : Advanced Video Codec
Format profile : Main@L4
Format settings : CABAC / 1 Ref Frames
Format settings, CABAC : Yes
Format settings, RefFrames : 1 frame
Format settings, GOP : M=1, N=48
Codec ID : V_MPEG4/ISO/AVC
Duration : 47 min 9 s
Bit rate : 3 984 kb/s
Width : 1 920 pixels
Height : 1 080 pixels
Display aspect ratio : 16:9
Frame rate mode : Constant
Frame rate : 23.976 (24000/1001) FPS
Color space : YUV
Chroma subsampling : 4:2:0
Bit depth : 8 bits
Scan type : Progressive
Bits/(Pixel*Frame) : 0.080
Stream size : 1.31 GiB (98%)
Default : Yes
Forced : No

Audio
ID : 2
Format : AAC
Format/Info : Advanced Audio Codec
Format profile : LC
Codec ID : A_AAC-2
Duration : 47 min 9 s
Bit rate : 96.0 kb/s
Channel(s) : 2 channels
Channel positions : Front: L R
Sampling rate : 44.1 kHz
Frame rate : 43.066 FPS (1024 SPF)
Compression mode : Lossy
Delay relative to video : -2 ms
Stream size : 32.4 MiB (2%)
Default : Yes
Forced : No





Mr. Robot S04E03


Mr. Robot S04E03


Mr. Robot S04E03


Mr. Robot S04E03


Mr. Robot S04E03

All episodes