Index
# A B C D E F G H I J K L M N O P Q R S T U V W Y Z
Tags
Language
Tags

Featured TV Shows


Mr. Robot S04E06

Posted By: Tavaz
1080p (FullHD) / BDRip IMDb
Mr. Robot S04E06

Mr. Robot S04E06
BluRay Remux | MKV | 1920x1080 | English | H264 @ 23692 kbps | DTS | 46 min 59 s | 8.61 GiB
Subtitles: Español, Français, English
Genre: Crime, Drama


A contemporary and culturally resonant drama about a young programmer, Elliot, who suffers from a debilitating anti-social disorder and decides that he can only connect to people by hacking them. He wields his skills as a weapon to protect the people that he cares about. Elliot will find himself in the intersection between a cybersecurity firm he works for and the underworld organizations that are recruiting him to bring down corporate America.

Mr.Robot.S04E06.406.Not.Acceptable.1080p.BluRay.REMUX.AVC.DTS-HD.MA.5.1-EPSiLON.part1.rar (4.5 GB)
Mr.Robot.S04E06.406.Not.Acceptable.1080p.BluRay.REMUX.AVC.DTS-HD.MA.5.1-EPSiLON.part2.rar (4.2 GB)



General
Unique ID : 201446959857768922604861543059083882394 (0x978D45F1B7FE796387278FA51F95EF9A)
Complete name : ./0579afd0b357614b423c87dbf9555572.mkv
Format : Matroska
Format version : Version 4 / Version 2
File size : 8.61 GiB
Duration : 46 min 59 s
Overall bit rate mode : Variable
Overall bit rate : 26.2 Mb/s
Movie name : Mr. Robot - S04E06 - 406 Not Acceptable
Track name/Position : 6
Track name/Total : 13
Encoded date : UTC 2020-04-06 12:41:13
Writing application : mkvmerge v43.0.0 ('The Quartermaster') 64-bit
Writing library : libebml v1.3.10 + libmatroska v1.5.2
IMDB : tt8084172
TMDB : tv/62560
TVDB : 289590

Video
ID : 1
Format : AVC
Format/Info : Advanced Video Codec
Format profile : High@L4.1
Format settings : CABAC / 4 Ref Frames
Format settings, CABAC : Yes
Format settings, RefFrames : 4 frames
Codec ID : V_MPEG4/ISO/AVC
Duration : 46 min 59 s
Bit rate mode : Variable
Bit rate : 23.7 Mb/s
Maximum bit rate : 35.0 Mb/s
Width : 1 920 pixels
Height : 1 080 pixels
Display aspect ratio : 16:9
Frame rate mode : Constant
Frame rate : 23.976 (24000/1001) FPS
Color space : YUV
Chroma subsampling : 4:2:0
Bit depth : 8 bits
Scan type : Progressive
Bits/(Pixel*Frame) : 0.477
Stream size : 7.78 GiB (90%)
Title : MPEG-4 AVC Video / 23692 kbps / 1080p / 23.976 fps / 16:9 / High Profile 4.1
Language : English
Default : Yes
Forced : No

Audio
ID : 2
Format : DTS
Format/Info : Digital Theater Systems
Format profile : MA / Core
Mode : 16
Format settings, Endianness : Big
Codec ID : A_DTS
Duration : 46 min 59 s
Bit rate mode : Variable / Constant
Bit rate : 2 441 kb/s / 1 509 kb/s
Channel(s) : 6 channels
Channel positions : Front: L C R, Side: L R, LFE
Sampling rate : 48.0 kHz
Frame rate : 93.750 FPS (512 SPF)
Bit depth : 24 bits
Compression mode : Lossless / Lossy
Stream size : 820 MiB (9%)
Title : DTS-HD Master Audio / 5.1 / 48 kHz / 2441 kbps / 24-bit
Language : English
Default : Yes
Forced : No

Text #1
ID : 3
Format : PGS
Codec ID : S_HDMV/PGS
Codec ID/Info : Picture based subtitle format used on BDs/HD-DVDs
Duration : 46 min 18 s
Bit rate : 39.4 kb/s
Count of elements : 1352
Stream size : 13.0 MiB (0%)
Title : SDH
Language : English
Default : No
Forced : No

Text #2
ID : 4
Format : PGS
Codec ID : S_HDMV/PGS
Codec ID/Info : Picture based subtitle format used on BDs/HD-DVDs
Duration : 46 min 56 s
Bit rate : 25.8 kb/s
Count of elements : 1140
Stream size : 8.67 MiB (0%)
Language : French
Default : No
Forced : No

Text #3
ID : 5
Format : PGS
Codec ID : S_HDMV/PGS
Codec ID/Info : Picture based subtitle format used on BDs/HD-DVDs
Duration : 46 min 56 s
Bit rate : 31.1 kb/s
Count of elements : 1170
Stream size : 10.4 MiB (0%)
Title : Latin American
Language : Spanish
Default : No
Forced : No

Menu
00:00:00.000 : en:Chapter 1
00:04:54.920 : en:Chapter 2
00:17:25.962 : en:Chapter 3
00:44:22.118 : en:Chapter 4





Mr. Robot S04E06


Mr. Robot S04E06


Mr. Robot S04E06


Mr. Robot S04E06


Mr. Robot S04E06

All episodes