Index
# A B C D E F G H I J K L M N O P Q R S T U V W Y Z
Tags
Language
Tags

Featured TV Shows


Mr. Robot S04E13

Posted By: Tavaz
720p (HD) / WEBRip IMDb
Mr. Robot S04E13

Mr. Robot S04E13
WEBRip | MKV | 1280x720 | English | H264 @ 1625 kbps | AAC @ 64 kbps | 51 min 12 s | 619 MiB
Subtitles: English
Genre: Crime, Drama


A contemporary and culturally resonant drama about a young programmer, Elliot, who suffers from a debilitating anti-social disorder and decides that he can only connect to people by hacking them. He wields his skills as a weapon to protect the people that he cares about. Elliot will find himself in the intersection between a cybersecurity firm he works for and the underworld organizations that are recruiting him to bring down corporate America.

fd3957c5a619469988cb3a04c03baac6.mkv (619.4 MB)



General
Unique ID : 171988485194126322747357810236322320256 (0x8163C701E2A0BE16406845CF65098F80)
Complete name : ./fd3957c5a619469988cb3a04c03baac6.mkv
Format : Matroska
Format version : Version 4 / Version 2
File size : 619 MiB
Duration : 51 min 12 s
Overall bit rate : 1 691 kb/s
Encoded date : UTC 2019-12-23 03:00:26
Writing application : mkvmerge v41.0.0 ('Smarra') 64-bit
Writing library : libebml v1.3.9 + libmatroska v1.5.2

Video
ID : 1
Format : AVC
Format/Info : Advanced Video Codec
Format profile : High@L3.1
Format settings : CABAC / 5 Ref Frames
Format settings, CABAC : Yes
Format settings, RefFrames : 5 frames
Codec ID : V_MPEG4/ISO/AVC
Duration : 51 min 12 s
Bit rate : 1 625 kb/s
Width : 1 280 pixels
Height : 720 pixels
Display aspect ratio : 16:9
Frame rate mode : Constant
Frame rate : 23.976 (24000/1001) FPS
Color space : YUV
Chroma subsampling : 4:2:0
Bit depth : 8 bits
Scan type : Progressive
Bits/(Pixel*Frame) : 0.074
Stream size : 595 MiB (96%)
Default : Yes
Forced : No

Audio
ID : 2
Format : AAC
Format/Info : Advanced Audio Codec
Format profile : HE-AAC / LC
Format settings : Explicit
Codec ID : A_AAC-2
Duration : 51 min 12 s
Bit rate : 64.0 kb/s
Channel(s) : 2 channels
Channel positions : Front: L R
Sampling rate : 48.0 kHz / 24.0 kHz
Frame rate : 23.438 FPS (1024 SPF)
Compression mode : Lossy
Stream size : 23.4 MiB (4%)
Default : Yes
Forced : No

Text
ID : 3
Format : UTF-8
Codec ID : S_TEXT/UTF8
Codec ID/Info : UTF-8 Plain Text
Duration : 50 min 38 s
Bit rate : 46 b/s
Count of elements : 738
Stream size : 17.2 KiB (0%)
Language : English
Default : No
Forced : No





Mr. Robot S04E13


Mr. Robot S04E13


Mr. Robot S04E13


Mr. Robot S04E13


Mr. Robot S04E13

All episodes