Featured TV Shows


Murder Chose Me S02E01

Posted By: Tavaz
720p (HD) / WEBRip IMDb
Murder Chose Me S02E01

Murder Chose Me S02E01
WEBRip | MKV | 1280x720 | English | H264 @ 2174 kbps | AAC @ 126 kbps | 42 min 52 s | 706 MiB
Subtitles: English
Genre: Kejahatan


Homicide detective, Rod Demery, races against the clock to catch criminals running loose on the streets of Shreveport, Louisiana.

6d53b28955de48bd83c377409c14190a.mkv (706.3 MB)



General
Unique ID : 83317170264701907150915754017523127501 (0x3EAE4DA5AFFD06C8E6CED35EC69254CD)
Complete name : ./6d53b28955de48bd83c377409c14190a.mkv
Format : Matroska
Format version : Version 4 / Version 2
File size : 706 MiB
Duration : 42 min 52 s
Overall bit rate : 2 303 kb/s
Encoded date : UTC 2019-06-14 03:22:23
Writing application : mkvmerge v32.0.0 ('Astral Progressions') 64-bit
Writing library : libebml v1.3.7 + libmatroska v1.5.0

Video
ID : 1
Format : AVC
Format/Info : Advanced Video Codec
Format profile : High@L4.1
Format settings : CABAC / 5 Ref Frames
Format settings, CABAC : Yes
Format settings, RefFrames : 5 frames
Codec ID : V_MPEG4/ISO/AVC
Duration : 42 min 52 s
Bit rate : 2 174 kb/s
Width : 1 280 pixels
Height : 720 pixels
Display aspect ratio : 16:9
Frame rate mode : Constant
Frame rate : 23.976 (23976/1000) FPS
Color space : YUV
Chroma subsampling : 4:2:0
Bit depth : 8 bits
Scan type : Progressive
Bits/(Pixel*Frame) : 0.098
Stream size : 667 MiB (94%)
Writing library : x264 core 157 r2970 5493be8
Encoding settings : cabac=1 / ref=5 / deblock=1:-3:-3 / analyse=0x3:0x113 / me=hex / subme=8 / psy=1 / psy_rd=1.00:0.15 / mixed_ref=1 / me_range=16 / chroma_me=1 / trellis=2 / 8x8dct=1 / cqm=0 / deadzone=21,11 / fast_pskip=1 / chroma_qp_offset=-3 / threads=6 / lookahead_threads=1 / sliced_threads=0 / nr=0 / decimate=1 / interlaced=0 / bluray_compat=0 / constrained_intra=0 / bframes=3 / b_pyramid=2 / b_adapt=1 / b_bias=0 / direct=3 / weightb=1 / open_gop=0 / weightp=2 / keyint=250 / keyint_min=23 / scenecut=40 / intra_refresh=0 / rc_lookahead=50 / rc=crf / mbtree=1 / crf=18.0 / qcomp=0.60 / qpmin=0 / qpmax=69 / qpstep=4 / vbv_maxrate=17500 / vbv_bufsize=17500 / crf_max=0.0 / nal_hrd=none / filler=0 / ip_ratio=1.40 / aq=1:0.60
Default : Yes
Forced : No
Color range : Limited
Matrix coefficients : BT.709

Audio
ID : 2
Format : AAC
Format/Info : Advanced Audio Codec
Format profile : HE-AAC / LC
Format settings : Explicit
Codec ID : A_AAC-2
Duration : 42 min 52 s
Bit rate : 127 kb/s
Channel(s) : 2 channels
Channel positions : Front: L R
Sampling rate : 48.0 kHz / 24.0 kHz
Frame rate : 23.438 FPS (1024 SPF)
Compression mode : Lossy
Stream size : 38.9 MiB (6%)
Language : English
Default : Yes
Forced : No

Text
ID : 3
Format : UTF-8
Codec ID : S_TEXT/UTF8
Codec ID/Info : UTF-8 Plain Text
Duration : 42 min 45 s
Bit rate : 97 b/s
Count of elements : 1303
Stream size : 30.6 KiB (0%)
Language : English
Default : No
Forced : No





Murder Chose Me S02E01


Murder Chose Me S02E01


Murder Chose Me S02E01


Murder Chose Me S02E01


Murder Chose Me S02E01

All episodes