Featured TV Shows


Murder Chose Me S02E06

Posted By: Tavaz
720p (HD) / WEBRip IMDb
Murder Chose Me S02E06

Murder Chose Me S02E06
WEBRip | MKV | 1280x720 | English | H264 @ 1684 kbps | AAC @ 126 kbps | 42 min 53 s | 556 MiB
Subtitles: English
Genre: Crime


Homicide detective, Rod Demery, races against the clock to catch criminals running loose on the streets of Shreveport, Louisiana.

2e83ce6530294507a3143f715ea5d863.mkv (556.5 MB)



General
Unique ID : 124143206227384266272373616294990182729 (0x5D651CA0AA488EA6524F7BCE55AFF949)
Complete name : ./2e83ce6530294507a3143f715ea5d863.mkv
Format : Matroska
Format version : Version 4 / Version 2
File size : 556 MiB
Duration : 42 min 53 s
Overall bit rate : 1 814 kb/s
Encoded date : UTC 2019-06-14 07:04:48
Writing application : mkvmerge v32.0.0 ('Astral Progressions') 64-bit
Writing library : libebml v1.3.7 + libmatroska v1.5.0

Video
ID : 1
Format : AVC
Format/Info : Advanced Video Codec
Format profile : High@L4.1
Format settings : CABAC / 5 Ref Frames
Format settings, CABAC : Yes
Format settings, RefFrames : 5 frames
Codec ID : V_MPEG4/ISO/AVC
Duration : 42 min 53 s
Bit rate : 1 685 kb/s
Width : 1 280 pixels
Height : 720 pixels
Display aspect ratio : 16:9
Frame rate mode : Constant
Frame rate : 23.976 (24000/1001) FPS
Original frame rate : 23.976 (23976/1000) FPS
Color space : YUV
Chroma subsampling : 4:2:0
Bit depth : 8 bits
Scan type : Progressive
Bits/(Pixel*Frame) : 0.076
Stream size : 517 MiB (93%)
Writing library : x264 core 157 r2970 5493be8
Encoding settings : cabac=1 / ref=5 / deblock=1:-3:-3 / analyse=0x3:0x113 / me=hex / subme=8 / psy=1 / psy_rd=1.00:0.15 / mixed_ref=1 / me_range=16 / chroma_me=1 / trellis=2 / 8x8dct=1 / cqm=0 / deadzone=21,11 / fast_pskip=1 / chroma_qp_offset=-3 / threads=6 / lookahead_threads=1 / sliced_threads=0 / nr=0 / decimate=1 / interlaced=0 / bluray_compat=0 / constrained_intra=0 / bframes=3 / b_pyramid=2 / b_adapt=1 / b_bias=0 / direct=3 / weightb=1 / open_gop=0 / weightp=2 / keyint=250 / keyint_min=23 / scenecut=40 / intra_refresh=0 / rc_lookahead=50 / rc=crf / mbtree=1 / crf=18.0 / qcomp=0.60 / qpmin=0 / qpmax=69 / qpstep=4 / vbv_maxrate=17500 / vbv_bufsize=17500 / crf_max=0.0 / nal_hrd=none / filler=0 / ip_ratio=1.40 / aq=1:0.60
Default : Yes
Forced : No
Color range : Limited
Matrix coefficients : BT.709

Audio
ID : 2
Format : AAC
Format/Info : Advanced Audio Codec
Format profile : HE-AAC / LC
Format settings : Explicit
Codec ID : A_AAC-2
Duration : 42 min 53 s
Bit rate : 127 kb/s
Channel(s) : 2 channels
Channel positions : Front: L R
Sampling rate : 48.0 kHz / 24.0 kHz
Frame rate : 23.438 FPS (1024 SPF)
Compression mode : Lossy
Stream size : 38.9 MiB (7%)
Language : English
Default : Yes
Forced : No

Text
ID : 3
Format : UTF-8
Codec ID : S_TEXT/UTF8
Codec ID/Info : UTF-8 Plain Text
Duration : 42 min 44 s
Bit rate : 101 b/s
Count of elements : 1326
Stream size : 31.9 KiB (0%)
Language : English
Default : No
Forced : No





Murder Chose Me S02E06


Murder Chose Me S02E06


Murder Chose Me S02E06


Murder Chose Me S02E06


Murder Chose Me S02E06

All episodes