Featured TV Shows


Murdoch Mysteries S12E17

Posted By: Tavaz
1080p (FullHD) / WEBRip IMDb
Murdoch Mysteries S12E17

Murdoch Mysteries S12E17
WEBRip | MKV | 1920x1080 | English | H264 @ 5868 kbps | AC-3 @ 384 kbps | 44 min 12 s | 1.93 GiB
Genre: Drama, Mystery

A Victorian-era Toronto detective uses then-cutting edge forensic techniques to solve crimes, with the assistance of a female coroner who is also struggling for recognition in the face of tradition, based on the books by Maureen Jennings.

a069635e537f47d59d79520a2813e381.mkv (1.9 GB)



General
Unique ID : 236454484627463731994495931574518111990 (0xB1E37A2C96AFEA6A5CA91D05C0355EF6)
Complete name : ./a069635e537f47d59d79520a2813e381.mkv
Format : Matroska
Format version : Version 4 / Version 2
File size : 1.93 GiB
Duration : 44 min 12 s
Overall bit rate : 6 254 kb/s
Encoded date : UTC 2019-02-26 01:20:02
Writing application : mkvmerge v29.0.0 ('Like It Or Not') 64-bit
Writing library : libebml v1.3.6 + libmatroska v1.4.9

Video
ID : 1
Format : AVC
Format/Info : Advanced Video Codec
Format profile : High@L4.1
Format settings : CABAC / 5 Ref Frames
Format settings, CABAC : Yes
Format settings, RefFrames : 5 frames
Codec ID : V_MPEG4/ISO/AVC
Duration : 44 min 12 s
Bit rate : 5 869 kb/s
Width : 1 920 pixels
Height : 1 080 pixels
Display aspect ratio : 16:9
Frame rate mode : Constant
Frame rate : 23.976 (24000/1001) FPS
Color space : YUV
Chroma subsampling : 4:2:0
Bit depth : 8 bits
Scan type : Progressive
Bits/(Pixel*Frame) : 0.118
Stream size : 1.81 GiB (94%)
Writing library : x264 core 157 r2935 545de2f
Encoding settings : cabac=1 / ref=5 / deblock=1:-3:-3 / analyse=0x3:0x113 / me=hex / subme=8 / psy=1 / psy_rd=1.00:0.15 / mixed_ref=1 / me_range=16 / chroma_me=1 / trellis=2 / 8x8dct=1 / cqm=0 / deadzone=21,11 / fast_pskip=1 / chroma_qp_offset=-3 / threads=24 / lookahead_threads=4 / sliced_threads=0 / nr=0 / decimate=1 / interlaced=0 / bluray_compat=0 / constrained_intra=0 / bframes=3 / b_pyramid=2 / b_adapt=2 / b_bias=0 / direct=3 / weightb=1 / open_gop=0 / weightp=2 / keyint=250 / keyint_min=23 / scenecut=40 / intra_refresh=0 / rc_lookahead=50 / rc=crf / mbtree=1 / crf=18.0 / qcomp=0.60 / qpmin=0 / qpmax=69 / qpstep=4 / ip_ratio=1.40 / aq=1:1.00
Language : English
Default : Yes
Forced : No
Color range : Limited
Matrix coefficients : BT.709

Audio
ID : 2
Format : AC-3
Format/Info : Audio Coding 3
Format settings, Endianness : Big
Codec ID : A_AC3
Duration : 44 min 12 s
Bit rate mode : Constant
Bit rate : 384 kb/s
Channel(s) : 6 channels
Channel positions : Front: L C R, Side: L R, LFE
Sampling rate : 48.0 kHz
Frame rate : 31.250 FPS (1536 SPF)
Bit depth : 16 bits
Compression mode : Lossy
Stream size : 121 MiB (6%)
Service kind : Complete Main
Default : Yes
Forced : No





Murdoch Mysteries S12E17


Murdoch Mysteries S12E17


Murdoch Mysteries S12E17


Murdoch Mysteries S12E17


Murdoch Mysteries S12E17

All episodes