Featured TV Shows


Murdoch Mysteries S12E18

Posted By: Tavaz
720p (HD) / WEBRip IMDb
Murdoch Mysteries S12E18

Murdoch Mysteries S12E18
WEBRip | MKV | 1280x720 | English | H264 @ 2152 kbps | AC-3 @ 384 kbps | 43 min 40 s | 793 MiB
Subtitles: English
Genre: Drama, Mystery

A Victorian-era Toronto detective uses then-cutting edge forensic techniques to solve crimes, with the assistance of a female coroner who is also struggling for recognition in the face of tradition, based on the books by Maureen Jennings.

ca21919c9fbb47a0bef761aee1751d3e.mkv (793.0 MB)



General
Unique ID : 53238567482186516904548386532310624580 (0x280D60089630BE4B7DDB8AA4A79BA944)
Complete name : ./ca21919c9fbb47a0bef761aee1751d3e.mkv
Format : Matroska
Format version : Version 4 / Version 2
File size : 793 MiB
Duration : 43 min 40 s
Overall bit rate : 2 539 kb/s
Encoded date : UTC 2019-03-05 00:39:26
Writing application : mkvmerge v29.0.0 ('Like It Or Not') 64-bit
Writing library : libebml v1.3.6 + libmatroska v1.4.9

Video
ID : 1
Format : AVC
Format/Info : Advanced Video Codec
Format profile : High@L4.1
Format settings : CABAC / 5 Ref Frames
Format settings, CABAC : Yes
Format settings, RefFrames : 5 frames
Codec ID : V_MPEG4/ISO/AVC
Duration : 43 min 40 s
Bit rate : 2 153 kb/s
Width : 1 280 pixels
Height : 720 pixels
Display aspect ratio : 16:9
Frame rate mode : Constant
Frame rate : 23.976 (24000/1001) FPS
Color space : YUV
Chroma subsampling : 4:2:0
Bit depth : 8 bits
Scan type : Progressive
Bits/(Pixel*Frame) : 0.097
Stream size : 672 MiB (85%)
Writing library : x264 core 157 r2935 545de2f
Encoding settings : cabac=1 / ref=5 / deblock=1:-3:-3 / analyse=0x3:0x113 / me=hex / subme=8 / psy=1 / psy_rd=1.00:0.15 / mixed_ref=1 / me_range=16 / chroma_me=1 / trellis=2 / 8x8dct=1 / cqm=0 / deadzone=21,11 / fast_pskip=1 / chroma_qp_offset=-3 / threads=22 / lookahead_threads=3 / sliced_threads=0 / nr=0 / decimate=1 / interlaced=0 / bluray_compat=0 / constrained_intra=0 / bframes=3 / b_pyramid=2 / b_adapt=2 / b_bias=0 / direct=3 / weightb=1 / open_gop=0 / weightp=2 / keyint=250 / keyint_min=23 / scenecut=40 / intra_refresh=0 / rc_lookahead=50 / rc=crf / mbtree=1 / crf=18.0 / qcomp=0.60 / qpmin=0 / qpmax=69 / qpstep=4 / ip_ratio=1.40 / aq=1:1.00
Language : English
Default : Yes
Forced : No
Color range : Limited
Matrix coefficients : BT.709

Audio
ID : 2
Format : AC-3
Format/Info : Audio Coding 3
Format settings, Endianness : Big
Codec ID : A_AC3
Duration : 43 min 40 s
Bit rate mode : Constant
Bit rate : 384 kb/s
Channel(s) : 6 channels
Channel positions : Front: L C R, Side: L R, LFE
Sampling rate : 48.0 kHz
Frame rate : 31.250 FPS (1536 SPF)
Bit depth : 16 bits
Compression mode : Lossy
Stream size : 120 MiB (15%)
Service kind : Complete Main
Default : Yes
Forced : No

Text
ID : 3
Format : UTF-8
Codec ID : S_TEXT/UTF8
Codec ID/Info : UTF-8 Plain Text
Duration : 43 min 23 s
Bit rate : 113 b/s
Count of elements : 860
Stream size : 36.2 KiB (0%)
Language : English
Default : No
Forced : No





Murdoch Mysteries S12E18


Murdoch Mysteries S12E18


Murdoch Mysteries S12E18


Murdoch Mysteries S12E18


Murdoch Mysteries S12E18

All episodes