Featured TV Shows


My Brilliant Friend S02E02

Posted By: Tavaz
1080p (FullHD) / WEB-DL IMDb
My Brilliant Friend S02E02

My Brilliant Friend S02E02
WEB-DL | MKV | 1920x1080 | Italiano | H264 @ 10000 kbps | E-AC-3 @ 640 kbps | 52 min 31 s | 3.75 GiB
Subtitles: English
Genre: Drama


When the most important friend in her life seems to have disappeared without a trace, Elena Greco, a now-elderly woman immersed in a house full of books, turns on her computer and starts writing the story of their friendship.

5c35de2207ce48cfaae837c8a4c2e62c.mkv (3.8 GB)



General
Unique ID : 113014695284229429905742303080438878659 (0x5505D6AD33FEAAFDEE5CF21AF8E0D1C3)
Complete name : ./5c35de2207ce48cfaae837c8a4c2e62c.mkv
Format : Matroska
Format version : Version 4 / Version 2
File size : 3.75 GiB
Duration : 52 min 31 s
Overall bit rate : 10.2 Mb/s
Encoded date : UTC 2020-03-24 11:22:09
Writing application : mkvmerge v44.0.0 ('Domino') 64-bit
Writing library : libebml v1.3.10 + libmatroska v1.5.2

Video
ID : 1
Format : AVC
Format/Info : Advanced Video Codec
Format profile : High@L4
Format settings : CABAC / 4 Ref Frames
Format settings, CABAC : Yes
Format settings, RefFrames : 4 frames
Codec ID : V_MPEG4/ISO/AVC
Duration : 52 min 31 s
Bit rate mode : Constant
Bit rate : 10 000 kb/s
Width : 1 920 pixels
Height : 1 080 pixels
Display aspect ratio : 16:9
Frame rate mode : Constant
Frame rate : 23.976 (24000/1001) FPS
Color space : YUV
Chroma subsampling : 4:2:0
Bit depth : 8 bits
Scan type : Progressive
Bits/(Pixel*Frame) : 0.201
Stream size : 3.52 GiB (94%)
Default : Yes
Forced : No
Color range : Limited
Color primaries : BT.709
Transfer characteristics : BT.709
Matrix coefficients : BT.709

Audio
ID : 2
Format : E-AC-3
Format/Info : Enhanced Audio Coding 3
Format settings, Endianness : Big
Codec ID : A_EAC3
Duration : 52 min 31 s
Bit rate mode : Constant
Bit rate : 640 kb/s
Channel(s) : 6 channels
Channel positions : Front: L C R, Side: L R, LFE
Sampling rate : 48.0 kHz
Frame rate : 187.500 FPS (256 SPF)
Compression mode : Lossy
Delay relative to video : 26 ms
Stream size : 240 MiB (6%)
Language : Italian
Service kind : Complete Main
Default : Yes
Forced : No

Text
ID : 3
Format : UTF-8
Codec ID : S_TEXT/UTF8
Codec ID/Info : UTF-8 Plain Text
Duration : 49 min 41 s
Bit rate : 6 b/s
Count of elements : 122
Stream size : 2.28 KiB (0%)
Title : SDH
Language : English
Default : No
Forced : No





My Brilliant Friend S02E02


My Brilliant Friend S02E02


My Brilliant Friend S02E02


My Brilliant Friend S02E02


My Brilliant Friend S02E02

All episodes