Index
# A B C D E F G H I J K L M N O P Q R S T U V W Y Z
Tags
Language
Tags

Featured TV Shows


My Little Pony: L' Amicizia E' Magica S09E25

Posted By: Tavaz
1080p (FullHD) / WEB-DL IMDb
My Little Pony: L' Amicizia E' Magica S09E25

My Little Pony: L' Amicizia E' Magica S09E25
WEB-DL | MKV | 1920x1080 | English | H264 @ 5108 kbps | AC-3 @ 384 kbps | 22 min 4 s | 868 MiB
Subtitles: English
Genre: Animazione, Commedia, Famiglia


"Get your muzzle out of those books and make some friends!" That's what Princess Celestia tells Twilight Sparkle. She may be the smartest unicorn in Equestria, but Twilight Sparkle gets an "incomplete" in friendship. There's more to life than learning magic, after all – so she goes to Ponyville on a mission to make friends. There she meets five special ponies who take her on exciting adventures and teach her the most powerful magic of all … the magic of friendship!

08bee892c1c448cd8e759bbfbdb63a09.mkv (867.8 MB)



General
Unique ID : 118063053729760116646478952167611839634 (0x58D21DF703BFFDF34468E4B29DC03492)
Complete name : ./08bee892c1c448cd8e759bbfbdb63a09.mkv
Format : Matroska
Format version : Version 4 / Version 2
File size : 868 MiB
Duration : 22 min 4 s
Overall bit rate : 5 494 kb/s
Encoded date : UTC 2019-12-08 17:55:56
Writing application : mkvmerge v38.0.0 ('The Silent Type') 64-bit
Writing library : libebml v1.3.9 + libmatroska v1.5.2

Video
ID : 1
Format : AVC
Format/Info : Advanced Video Codec
Format profile : High@L4
Format settings : CABAC / 4 Ref Frames
Format settings, CABAC : Yes
Format settings, RefFrames : 4 frames
Format settings, GOP : N=1
Codec ID : V_MPEG4/ISO/AVC
Duration : 22 min 4 s
Bit rate : 5 108 kb/s
Width : 1 920 pixels
Height : 1 080 pixels
Display aspect ratio : 16:9
Frame rate mode : Constant
Frame rate : 23.976 (24000/1001) FPS
Color space : YUV
Chroma subsampling : 4:2:0
Bit depth : 8 bits
Scan type : Progressive
Bits/(Pixel*Frame) : 0.103
Stream size : 807 MiB (93%)
Language : English
Default : Yes
Forced : No
Color range : Limited
Color primaries : BT.709
Transfer characteristics : BT.709
Matrix coefficients : BT.709

Audio
ID : 2
Format : AC-3
Format/Info : Audio Coding 3
Format settings, Endianness : Big
Codec ID : A_AC3
Duration : 22 min 4 s
Bit rate mode : Constant
Bit rate : 384 kb/s
Channel(s) : 6 channels
Channel positions : Front: L C R, Side: L R, LFE
Sampling rate : 48.0 kHz
Frame rate : 31.250 FPS (1536 SPF)
Bit depth : 16 bits
Compression mode : Lossy
Delay relative to video : -42 ms
Stream size : 60.7 MiB (7%)
Language : English
Service kind : Complete Main
Default : Yes
Forced : No

Text
ID : 3
Format : UTF-8
Codec ID : S_TEXT/UTF8
Codec ID/Info : UTF-8 Plain Text
Duration : 21 min 27 s
Bit rate : 97 b/s
Count of elements : 484
Stream size : 15.3 KiB (0%)
Language : English
Default : No
Forced : No





My Little Pony: L' Amicizia E' Magica S09E25


My Little Pony: L' Amicizia E' Magica S09E25


My Little Pony: L' Amicizia E' Magica S09E25


My Little Pony: L' Amicizia E' Magica S09E25

All episodes