Featured TV Shows


Mysteries at the Museum S19E03

Posted By: Tavaz
720p (HD) / HDTV IMDb
Mysteries at the Museum S19E03

Mysteries at the Museum S19E03
HDTV | MKV | 1280x720 | English | H264 @ 2892 kbps | AC-3 @ 384 kbps | 42 min 1 s | 985 MiB
Subtitles: English
Genre: Documentary


Museums are where America displays its wondrous treasures of the past – often strange and curious remnants of the momentous events that have shaped our history. Behind each artifact is yet another story to be told and secrets to be revealed – tales brimming with scandal, mystery, murder and intrigue. Whether a diary from an Arctic exploration, a stone giant thought to be the remnant of a race of enormous people or a futuristic house that almost changed the world, iconic museum artifacts help us uncover who we are and what we've become. Each hour of this series will take viewers on a captivating, revealing and at times shocking tour of America's past, revisiting its most crucial events by reexamining what has been left behind. The series casts its net wide, exploring the corners and backrooms of institutions dedicated to a variety of popular and entertaining subjects – invisible spies, cold-blooded assassins, dinosaurs, the paranormal, the Old West, the Cold War and more. We'll tackle some of history's most enduring mysteries – both familiar tales and little-known episodes that have never been told before on television.

mysteries.at.the.museum.s19e03.million.dollar.dinner.thing.in.the.woods.and.cornstalk.colonel.720p.hdtv.x264-w4f-sample.mkv (23.7 MB)
mysteries.at.the.museum.s19e03.million.dollar.dinner.thing.in.the.woods.and.cornstalk.colonel.720p.hdtv.x264-w4f.mkv (985.3 MB)



General
Unique ID : 192945394752761011733388394810766953978 (0x9127EE6C34CA95DD9A1FDAAA3B928DFA)
Complete name : ./mysteries.at.the.museum.s19e03.million.dollar.dinner.thing.in.the.woods.and.cornstalk.colonel.720p.hdtv.x264-w4f.mkv
Format : Matroska
Format version : Version 4 / Version 2
File size : 985 MiB
Duration : 42 min 1 s
Overall bit rate : 3 279 kb/s
Encoded date : UTC 2018-03-16 18:20:03
Writing application : mkvmerge v9.4.0 ('Knurl') 64bit
Writing library : libebml v1.3.4 + libmatroska v1.4.5

Video
ID : 1
Format : AVC
Format/Info : Advanced Video Codec
Format profile : High@L4.1
Format settings : CABAC / 5 Ref Frames
Format settings, CABAC : Yes
Format settings, RefFrames : 5 frames
Codec ID : V_MPEG4/ISO/AVC
Duration : 42 min 1 s
Bit rate : 2 892 kb/s
Width : 1 280 pixels
Height : 720 pixels
Display aspect ratio : 16:9
Frame rate mode : Constant
Frame rate : 29.970 (30000/1001) FPS
Color space : YUV
Chroma subsampling : 4:2:0
Bit depth : 8 bits
Scan type : Progressive
Bits/(Pixel*Frame) : 0.105
Stream size : 869 MiB (88%)
Writing library : x264 core 155 r2901 7d0ff22
Encoding settings : cabac=1 / ref=5 / deblock=1:0:0 / analyse=0x3:0x113 / me=hex / subme=8 / psy=1 / psy_rd=1.00:0.00 / mixed_ref=1 / me_range=16 / chroma_me=1 / trellis=2 / 8x8dct=1 / cqm=0 / deadzone=21,11 / fast_pskip=1 / chroma_qp_offset=-2 / threads=12 / lookahead_threads=2 / sliced_threads=0 / nr=0 / decimate=1 / interlaced=0 / bluray_compat=0 / constrained_intra=0 / bframes=3 / b_pyramid=2 / b_adapt=1 / b_bias=0 / direct=3 / weightb=1 / open_gop=0 / weightp=2 / keyint=250 / keyint_min=25 / scenecut=40 / intra_refresh=0 / rc_lookahead=50 / rc=crf / mbtree=1 / crf=20.0 / qcomp=0.60 / qpmin=0 / qpmax=69 / qpstep=4 / ip_ratio=1.40 / aq=1:1.00
Default : Yes
Forced : No

Audio
ID : 2
Format : AC-3
Format/Info : Audio Coding 3
Format settings, Endianness : Big
Codec ID : A_AC3
Duration : 42 min 1 s
Bit rate mode : Constant
Bit rate : 384 kb/s
Channel(s) : 6 channels
Channel positions : Front: L C R, Side: L R, LFE
Sampling rate : 48.0 kHz
Frame rate : 31.250 FPS (1536 SPF)
Bit depth : 16 bits
Compression mode : Lossy
Stream size : 115 MiB (12%)
Language : English
Service kind : Complete Main
Default : Yes
Forced : No

Text
ID : 3
Format : UTF-8
Codec ID : S_TEXT/UTF8
Codec ID/Info : UTF-8 Plain Text
Duration : 41 min 58 s
Bit rate : 126 b/s
Count of elements : 848
Stream size : 39.0 KiB (0%)
Language : English
Default : No
Forced : No





Mysteries at the Museum S19E03


Mysteries at the Museum S19E03


Mysteries at the Museum S19E03


Mysteries at the Museum S19E03


Mysteries at the Museum S19E03

All episodes