Featured TV Shows


Mysticons S02E03

Posted By: Tavaz
720p (HD) / WEB-DL IMDb
Mysticons S02E03

Mysticons S02E03
WEB-DL | MKV | 1280x720 | English | H264 @ 1879 kbps | AAC @ 127 kbps | 22 min 30 s | 324 MiB
Subtitles: English
Genre: Animation

The tale of four girls who transform into legendary warriors known as Mysticons. The Mysticons must use their powers to save their realm from Necrafa, an evil queen.

7c13f065d6304a68867d4133a7d98b78.mkv (323.6 MB)



General
Unique ID : 166653616237040795090698582692694007765 (0x7D6051A9027C9A95D1F253F5204B1FD5)
Complete name : ./7c13f065d6304a68867d4133a7d98b78.mkv
Format : Matroska
Format version : Version 4 / Version 2
File size : 324 MiB
Duration : 22 min 30 s
Overall bit rate : 2 010 kb/s
Encoded date : UTC 2018-01-30 21:13:30
Writing application : mkvmerge v19.0.0 ('Brave Captain') 64-bit
Writing library : libebml v1.3.5 + libmatroska v1.4.8

Video
ID : 1
Format : AVC
Format/Info : Advanced Video Codec
Format profile : High@L4
Format settings : CABAC / 4 Ref Frames
Format settings, CABAC : Yes
Format settings, RefFrames : 4 frames
Codec ID : V_MPEG4/ISO/AVC
Duration : 22 min 30 s
Bit rate : 1 880 kb/s
Width : 1 280 pixels
Height : 720 pixels
Display aspect ratio : 16:9
Frame rate mode : Constant
Frame rate : 23.976 (24000/1001) FPS
Color space : YUV
Chroma subsampling : 4:2:0
Bit depth : 8 bits
Scan type : Progressive
Bits/(Pixel*Frame) : 0.085
Stream size : 303 MiB (94%)
Writing library : x264 core 148
Encoding settings : cabac=1 / ref=4 / deblock=1:0:0 / analyse=0x3:0x113 / me=umh / subme=10 / psy=1 / psy_rd=1.00:0.15 / mixed_ref=1 / me_range=16 / chroma_me=1 / trellis=2 / 8x8dct=1 / cqm=0 / deadzone=21,11 / fast_pskip=1 / chroma_qp_offset=-3 / threads=14 / lookahead_threads=4 / sliced_threads=0 / nr=0 / decimate=1 / interlaced=0 / bluray_compat=0 / constrained_intra=0 / bframes=3 / b_pyramid=0 / b_adapt=2 / b_bias=0 / direct=3 / weightb=1 / open_gop=0 / weightp=2 / keyint=48 / keyint_min=4 / scenecut=0 / intra_refresh=0 / rc_lookahead=48 / rc=crf / mbtree=1 / crf=19.0 / qcomp=0.75 / qpmin=10 / qpmax=51 / qpstep=4 / vbv_maxrate=3000 / vbv_bufsize=6000 / crf_max=0.0 / nal_hrd=none / filler=0 / ip_ratio=1.40 / aq=1:0.80
Language : English
Default : Yes
Forced : No

Audio
ID : 2
Format : AAC
Format/Info : Advanced Audio Codec
Format profile : LC
Codec ID : A_AAC-2
Duration : 22 min 30 s
Bit rate : 128 kb/s
Channel(s) : 2 channels
Channel positions : Front: L R
Sampling rate : 48.0 kHz
Frame rate : 46.875 FPS (1024 SPF)
Compression mode : Lossy
Stream size : 20.6 MiB (6%)
Language : English
Default : Yes
Forced : No

Text
ID : 3
Format : UTF-8
Codec ID : S_TEXT/UTF8
Codec ID/Info : UTF-8 Plain Text
Duration : 22 min 21 s
Bit rate : 73 b/s
Count of elements : 508
Stream size : 12.1 KiB (0%)
Language : English
Default : No
Forced : No





Mysticons S02E03


Mysticons S02E03


Mysticons S02E03


Mysticons S02E03


Mysticons S02E03

All episodes