Featured TV Shows


Mysticons S02E16

Posted By: Tavaz
1080p (FullHD) / WEBRip IMDb
Mysticons S02E16

Mysticons S02E16
WEBRip | MKV | 1920x1080 | English | H264 @ 2898 kbps | AAC @ 127 kbps | 22 min 30 s | 488 MiB
Genre: Animation

The tale of four girls who transform into legendary warriors known as Mysticons. The Mysticons must use their powers to save their realm from Necrafa, an evil queen.

06479a41eda445ceb1be55012f5b18da.mkv (487.5 MB)



General
Unique ID : 76462688871430296168676419138662744556 (0x39862D9F570948E4CB71630477E4C1EC)
Complete name : ./06479a41eda445ceb1be55012f5b18da.mkv
Format : Matroska
Format version : Version 4 / Version 2
File size : 488 MiB
Duration : 22 min 30 s
Overall bit rate : 3 029 kb/s
Encoded date : UTC 2018-10-26 23:10:35
Writing application : mkvmerge v27.0.0 ('Metropolis') 64-bit
Writing library : libebml v1.3.6 + libmatroska v1.4.9

Video
ID : 1
Format : AVC
Format/Info : Advanced Video Codec
Format profile : High@L4
Format settings : CABAC / 4 Ref Frames
Format settings, CABAC : Yes
Format settings, RefFrames : 4 frames
Codec ID : V_MPEG4/ISO/AVC
Duration : 22 min 30 s
Bit rate : 2 899 kb/s
Width : 1 920 pixels
Height : 1 080 pixels
Display aspect ratio : 16:9
Frame rate mode : Constant
Frame rate : 23.976 (23976/1000) FPS
Color space : YUV
Chroma subsampling : 4:2:0
Bit depth : 8 bits
Scan type : Progressive
Bits/(Pixel*Frame) : 0.058
Stream size : 467 MiB (96%)
Writing library : x264 core 148
Encoding settings : cabac=1 / ref=4 / deblock=1:0:0 / analyse=0x3:0x113 / me=umh / subme=10 / psy=1 / psy_rd=1.00:0.15 / mixed_ref=1 / me_range=32 / chroma_me=1 / trellis=2 / 8x8dct=1 / cqm=0 / deadzone=21,11 / fast_pskip=1 / chroma_qp_offset=-3 / threads=24 / lookahead_threads=6 / sliced_threads=0 / nr=0 / decimate=1 / interlaced=0 / bluray_compat=0 / constrained_intra=0 / bframes=3 / b_pyramid=0 / b_adapt=2 / b_bias=0 / direct=3 / weightb=1 / open_gop=0 / weightp=2 / keyint=48 / keyint_min=4 / scenecut=0 / intra_refresh=0 / rc_lookahead=48 / rc=crf / mbtree=1 / crf=19.0 / qcomp=0.75 / qpmin=10 / qpmax=51 / qpstep=4 / vbv_maxrate=5000 / vbv_bufsize=10000 / crf_max=0.0 / nal_hrd=none / filler=0 / ip_ratio=1.40 / aq=1:0.80
Language : English
Default : Yes
Forced : No

Audio
ID : 2
Format : AAC
Format/Info : Advanced Audio Codec
Format profile : LC
Codec ID : A_AAC-2
Duration : 22 min 30 s
Bit rate : 128 kb/s
Channel(s) : 2 channels
Channel positions : Front: L R
Sampling rate : 48.0 kHz
Frame rate : 46.875 FPS (1024 SPF)
Compression mode : Lossy
Delay relative to video : -42 ms
Stream size : 20.6 MiB (4%)
Language : English
Default : Yes
Forced : No





Mysticons S02E16


Mysticons S02E16


Mysticons S02E16


Mysticons S02E16


Mysticons S02E16

All episodes