Featured TV Shows


NOS4A2 S02E07

Posted By: Tavaz
720p (HD) / WEBRip IMDb
NOS4A2 S02E07

NOS4A2 S02E07
WEBRip | MKV | 1280x720 | English | H264 @ 2499 kbps | AAC @ 93 kbps | 48 min 25 s | 897 MiB
Subtitles: English
Genre: Drama


A young Victoria "Vic" McQueen discovers she has the power to unlock portals that help her find lost objects. As she delves further into this hidden universe, she encounters many other "inscape travelers" - some benevolent, and some who have been corrupted by their power. When Vic encounters Charlie Manx, an immortal who stays that way by feeding off of the souls of children, she makes a sworn enemy of Manx.

05626e7e61ec4bf589265fd61f1862af.mkv (897.0 MB)



General
Unique ID : 192694621545343605241193600182911592048 (0x90F7A25955EF2AEAEC5A487CC7296670)
Complete name : ./05626e7e61ec4bf589265fd61f1862af.mkv
Format : Matroska
Format version : Version 4 / Version 2
File size : 897 MiB
Duration : 48 min 25 s
Overall bit rate : 2 589 kb/s
Encoded date : UTC 2020-08-01 01:01:04
Writing application : mkvmerge v45.0.0 ('Heaven in Pennies') 64-bit
Writing library : libebml v1.3.10 + libmatroska v1.5.2

Video
ID : 1
Format : AVC
Format/Info : Advanced Video Codec
Format profile : Main@L3.1
Format settings : CABAC / 3 Ref Frames
Format settings, CABAC : Yes
Format settings, RefFrames : 3 frames
Codec ID : V_MPEG4/ISO/AVC
Duration : 48 min 25 s
Bit rate mode : Constant
Bit rate : 2 500 kb/s
Width : 1 280 pixels
Height : 720 pixels
Display aspect ratio : 16:9
Frame rate mode : Constant
Frame rate : 23.976 (24000/1001) FPS
Color space : YUV
Chroma subsampling : 4:2:0
Bit depth : 8 bits
Scan type : Progressive
Bits/(Pixel*Frame) : 0.113
Stream size : 864 MiB (96%)
Default : Yes
Forced : No

Audio
ID : 2
Format : AAC
Format/Info : Advanced Audio Codec
Format profile : LC
Codec ID : A_AAC-2
Duration : 48 min 25 s
Bit rate : 93.6 kb/s
Channel(s) : 2 channels
Channel positions : Front: L R
Sampling rate : 44.1 kHz
Frame rate : 43.066 FPS (1024 SPF)
Compression mode : Lossy
Delay relative to video : 11 ms
Stream size : 32.4 MiB (4%)
Language : English
Default : Yes
Forced : No

Text
ID : 3
Format : UTF-8
Codec ID : S_TEXT/UTF8
Codec ID/Info : UTF-8 Plain Text
Duration : 47 min 45 s
Bit rate : 85 b/s
Count of elements : 846
Stream size : 29.8 KiB (0%)
Language : English
Default : No
Forced : No





NOS4A2 S02E07


NOS4A2 S02E07


NOS4A2 S02E07


NOS4A2 S02E07


NOS4A2 S02E07

All episodes