Index
# A B C D E F G H I J K L M N O P Q R S T U V W Y Z
Tags
Language
Tags

Featured TV Shows


Nancy Drew S01E09

Posted By: Tavaz
1080p (FullHD) / BDRip IMDb
Nancy Drew S01E09

Nancy Drew S01E09
BluRay Remux | MKV | 1920x1080 | English | H264 @ 27000 kbps | DTS | 42 min 21 s | 8.41 GiB
Subtitles: English
Genre: Mystery, Drama


Nancy Drew makes plans to leave her hometown for college, but finds herself drawn into a supernatural murder mystery instead.

Nancy.Drew.2019.S01E09.The.Hidden.Staircase.1080p.BluRay.REMUX.AVC.DTS-HD.MA.5.1-NOGRP.part1.rar (4.4 GB)
Nancy.Drew.2019.S01E09.The.Hidden.Staircase.1080p.BluRay.REMUX.AVC.DTS-HD.MA.5.1-NOGRP.part2.rar (4.1 GB)



General
Unique ID : 204984200234935171313204269745401995830 (0x9A36855C0DAA2788A00268D8C22FA236)
Complete name : ./30b225a53b7041b0aaca03fb1c22fb22.mkv
Format : Matroska
Format version : Version 4 / Version 2
File size : 8.41 GiB
Duration : 42 min 21 s
Overall bit rate mode : Variable
Overall bit rate : 28.4 Mb/s
Movie name : Nancy.Drew.2019.S01E09.The.Hidden.Staircase.1080p.Blu-ray.Remux.AVC.DTS-HD.MA.5.1-SiCFoI
Encoded date : UTC 2022-05-12 16:19:04
Writing application : mkvmerge v67.0.0 ('Under Stars') 64-bit
Writing library : libebml v1.4.2 + libmatroska v1.6.4

Video
ID : 1
ID in the original source medium : 4113 (0x1011)
Format : AVC
Format/Info : Advanced Video Codec
Format profile : High@L4.1
Format settings : CABAC / 3 Ref Frames
Format settings, CABAC : Yes
Format settings, RefFrames : 3 frames
Codec ID : V_MPEG4/ISO/AVC
Duration : 42 min 21 s
Bit rate mode : Variable
Bit rate : 27.0 Mb/s
Maximum bit rate : 40.0 Mb/s
Width : 1 920 pixels
Height : 1 080 pixels
Display aspect ratio : 16:9
Frame rate mode : Constant
Frame rate : 23.976 (24000/1001) FPS
Color space : YUV
Chroma subsampling : 4:2:0
Bit depth : 8 bits
Scan type : Progressive
Bits/(Pixel*Frame) : 0.543
Stream size : 7.89 GiB (94%)
Title : Nancy.Drew.2019.S01E09.The.Hidden.Staircase.1080p.Blu-ray.Remux.AVC.DTS-HD.MA.5.1-SiCFoI
Writing library : x264 core 152 r2851bm ba24899
Encoding settings : cabac=1 / ref=4 / deblock=1:0:0 / analyse=0x3:0x133 / me=umh / subme=9 / psy=1 / psy_rd=1.00:0.00 / mixed_ref=1 / me_range=16 / chroma_me=1 / trellis=2 / 8x8dct=1 / cqm=0 / deadzone=21,11 / fast_pskip=1 / chroma_qp_offset=-2 / threads=24 / lookahead_threads=2 / sliced_threads=0 / slices=4 / nr=0 / decimate=1 / interlaced=0 / bluray_compat=1 / constrained_intra=0 / bframes=3 / b_pyramid=1 / b_adapt=2 / b_bias=0 / direct=3 / weightb=1 / open_gop=1 / weightp=1 / keyint=24 / keyint_min=1 / scenecut=40 / intra_refresh=0 / rc_lookahead=24 / rc=abr / mbtree=1 / bitrate=27000 / ratetol=1.0 / qcomp=0.60 / qpmin=0 / qpmax=69 / qpstep=4 / vbv_maxrate=40000 / vbv_bufsize=30000 / nal_hrd=vbr / filler=0 / ip_ratio=1.40 / aq=1:1.00
Default : Yes
Forced : No
Color range : Limited
Color primaries : BT.709
Transfer characteristics : BT.709
Matrix coefficients : BT.709
Original source medium : Blu-ray

Audio
ID : 2
ID in the original source medium : 4352 (0x1100)
Format : DTS
Format/Info : Digital Theater Systems
Format profile : MA / Core
Mode : 16
Format settings, Endianness : Big
Codec ID : A_DTS
Duration : 42 min 21 s
Bit rate mode : Variable / Constant
Bit rate : 1 779 kb/s / 1 509 kb/s
Channel(s) : 6 channels
Channel positions : Front: L C R, Side: L R, LFE
Sampling rate : 48.0 kHz
Frame rate : 93.750 FPS (512 SPF)
Bit depth : 16 bits
Compression mode : Lossless / Lossy
Stream size : 539 MiB (6%)
Title : DTS-HD MA 5.1
Language : English
Default : Yes
Forced : No
Original source medium : Blu-ray

Text
ID : 3
Format : UTF-8
Codec ID : S_TEXT/UTF8
Codec ID/Info : UTF-8 Plain Text
Duration : 42 min 17 s
Bit rate : 80 b/s
Count of elements : 872
Stream size : 24.8 KiB (0%)
Title : English SDH
Language : English
Default : No
Forced : No

Menu
00:00:00.000 : en:Chapter 01
00:12:42.762 : en:Chapter 02
00:16:36.996 : en:Chapter 03
00:24:31.470 : en:Chapter 04
00:33:04.983 : en:Chapter 05
00:41:54.512 : en:Chapter 06





Nancy Drew S01E09


Nancy Drew S01E09


Nancy Drew S01E09


Nancy Drew S01E09


Nancy Drew S01E09

All episodes