Index
# A B C D E F G H I J K L M N O P Q R S T U V W Y Z
Tags
Language
Tags

Featured TV Shows


Nancy Drew S03E13

Posted By: Tavaz
1080p (FullHD) / WEBRip IMDb
Nancy Drew S03E13

Nancy Drew S03E13
WEBRip | MKV | 1920x960 | English | H264 @ 7637 kbps | E-AC-3 @ 640 kbps | 42 min 27 s | 2.46 GiB
Subtitles: English
Genre: Mystery, Drama


Nancy Drew makes plans to leave her hometown for college, but finds herself drawn into a supernatural murder mystery instead.

4e62e3d99d91444ab8ab07ea17f5fb30.mkv (2.5 GB)



General
Unique ID : 194370446896306825156757205322004694233 (0x923A62EAFD44D10513CEE044E4B004D9)
Complete name : ./4e62e3d99d91444ab8ab07ea17f5fb30.mkv
Format : Matroska
Format version : Version 4 / Version 2
File size : 2.46 GiB
Duration : 42 min 27 s
Overall bit rate : 8 280 kb/s
Encoded date : UTC 2022-01-29 07:58:41
Writing application : mkvmerge v64.0.0 ('Willows') 64-bit
Writing library : libebml v1.4.2 + libmatroska v1.6.3

Video
ID : 1
Format : AVC
Format/Info : Advanced Video Codec
Format profile : High@L4
Format settings : CABAC / 4 Ref Frames
Format settings, CABAC : Yes
Format settings, RefFrames : 4 frames
Codec ID : V_MPEG4/ISO/AVC
Duration : 42 min 27 s
Bit rate mode : Constant
Bit rate : 7 638 kb/s
Nominal bit rate : 10 000 kb/s
Width : 1 920 pixels
Height : 960 pixels
Display aspect ratio : 2.000
Frame rate mode : Constant
Frame rate : 23.976 (24000/1001) FPS
Color space : YUV
Chroma subsampling : 4:2:0
Bit depth : 8 bits
Scan type : Progressive
Bits/(Pixel*Frame) : 0.173
Stream size : 2.26 GiB (92%)
Language : English
Default : Yes
Forced : No
Color range : Limited
Color primaries : BT.709
Transfer characteristics : BT.709
Matrix coefficients : BT.709

Audio
ID : 2
Format : E-AC-3
Format/Info : Enhanced Audio Coding 3
Format settings, Endianness : Big
Codec ID : A_EAC3
Duration : 42 min 27 s
Bit rate mode : Constant
Bit rate : 640 kb/s
Channel(s) : 6 channels
Channel positions : Front: L C R, Side: L R, LFE
Sampling rate : 48.0 kHz
Frame rate : 187.500 FPS (256 SPF)
Compression mode : Lossy
Stream size : 194 MiB (8%)
Language : English
Service kind : Complete Main
Default : Yes
Forced : No

Text
ID : 3
Format : UTF-8
Codec ID : S_TEXT/UTF8
Codec ID/Info : UTF-8 Plain Text
Duration : 42 min 19 s
Bit rate : 68 b/s
Count of elements : 773
Stream size : 21.3 KiB (0%)
Title : English
Language : English
Default : No
Forced : No





Nancy Drew S03E13


Nancy Drew S03E13


Nancy Drew S03E13


Nancy Drew S03E13


Nancy Drew S03E13

All episodes