Index
# A B C D E F G H I J K L M N O P Q R S T U V W Y Z
Tags
Language
Tags

Featured TV Shows


Nancy Drew S03E13

Posted By: Tavaz
720p (HD) / WEBRip IMDb
Nancy Drew S03E13

Nancy Drew S03E13
WEBRip | MKV | 1280x640 | English | H264 @ 3161 kbps | E-AC-3 @ 640 kbps | 42 min 27 s | 1.13 GiB
Subtitles: English
Genre: Mystery, Drama


Nancy Drew makes plans to leave her hometown for college, but finds herself drawn into a supernatural murder mystery instead.

b0be1b28ec0f45bdadbfe5c4ab697198.mkv (1.1 GB)



General
Unique ID : 42137898711912329472721585397858683974 (0x1FB376CEC07913979D5F5D04C679CC46)
Complete name : ./b0be1b28ec0f45bdadbfe5c4ab697198.mkv
Format : Matroska
Format version : Version 4 / Version 2
File size : 1.13 GiB
Duration : 42 min 27 s
Overall bit rate : 3 804 kb/s
Encoded date : UTC 2022-01-29 07:59:05
Writing application : mkvmerge v64.0.0 ('Willows') 64-bit
Writing library : libebml v1.4.2 + libmatroska v1.6.3

Video
ID : 1
Format : AVC
Format/Info : Advanced Video Codec
Format profile : High@L3.1
Format settings : CABAC / 4 Ref Frames
Format settings, CABAC : Yes
Format settings, RefFrames : 4 frames
Codec ID : V_MPEG4/ISO/AVC
Duration : 42 min 27 s
Bit rate mode : Constant
Bit rate : 3 162 kb/s
Nominal bit rate : 6 000 kb/s
Width : 1 280 pixels
Height : 640 pixels
Display aspect ratio : 2.000
Frame rate mode : Constant
Frame rate : 23.976 (24000/1001) FPS
Color space : YUV
Chroma subsampling : 4:2:0
Bit depth : 8 bits
Scan type : Progressive
Bits/(Pixel*Frame) : 0.161
Stream size : 960 MiB (83%)
Language : English
Default : Yes
Forced : No
Color range : Limited
Color primaries : BT.709
Transfer characteristics : BT.709
Matrix coefficients : BT.709

Audio
ID : 2
Format : E-AC-3
Format/Info : Enhanced Audio Coding 3
Format settings, Endianness : Big
Codec ID : A_EAC3
Duration : 42 min 27 s
Bit rate mode : Constant
Bit rate : 640 kb/s
Channel(s) : 6 channels
Channel positions : Front: L C R, Side: L R, LFE
Sampling rate : 48.0 kHz
Frame rate : 187.500 FPS (256 SPF)
Compression mode : Lossy
Stream size : 194 MiB (17%)
Language : English
Service kind : Complete Main
Default : Yes
Forced : No

Text
ID : 3
Format : UTF-8
Codec ID : S_TEXT/UTF8
Codec ID/Info : UTF-8 Plain Text
Duration : 42 min 19 s
Bit rate : 68 b/s
Count of elements : 773
Stream size : 21.3 KiB (0%)
Title : English
Language : English
Default : No
Forced : No





Nancy Drew S03E13


Nancy Drew S03E13


Nancy Drew S03E13


Nancy Drew S03E13


Nancy Drew S03E13

All episodes