Index
# A B C D E F G H I J K L M N O P Q R S T U V W Y Z
Tags
Language
Tags

Featured TV Shows


Nancy Drew S03E13

Posted By: Tavaz
1080p (FullHD) / BDRip IMDb
Nancy Drew S03E13

Nancy Drew S03E13
BluRay Remux | MKV | 1920x1080 | English | H264 @ 25182 kbps | DTS | 42 min 29 s | 8.53 GiB
Subtitles: English
Genre: Mystery, Drama


Nancy Drew makes plans to leave her hometown for college, but finds herself drawn into a supernatural murder mystery instead.

Nancy.Drew.2019.S03E13.The.Ransom.of.the.Forsaken.Soul.1080p.BluRay.REMUX.AVC.DTS-HD.MA.5.1-NOGRP.part1.rar (4.5 GB)
Nancy.Drew.2019.S03E13.The.Ransom.of.the.Forsaken.Soul.1080p.BluRay.REMUX.AVC.DTS-HD.MA.5.1-NOGRP.part2.rar (4.1 GB)



General
Unique ID : 55176315741988035287930030558482256317 (0x2982926620B4ED3E1B184F454993D1BD)
Complete name : ./23188fafa8f84d7c86f45c94d436275b.mkv
Format : Matroska
Format version : Version 4 / Version 2
File size : 8.53 GiB
Duration : 42 min 29 s
Overall bit rate mode : Variable
Overall bit rate : 28.7 Mb/s
Movie name : Nancy.Drew.2019.S03E13.The.Ransom.of.the.Forsaken.Soul.1080p.Blu-ray.Remux.AVC.DTS-HD.MA.5.1-SiCFoI
Encoded date : UTC 2022-05-12 16:03:46
Writing application : mkvmerge v67.0.0 ('Under Stars') 64-bit
Writing library : libebml v1.4.2 + libmatroska v1.6.4

Video
ID : 1
Format : AVC
Format/Info : Advanced Video Codec
Format profile : High@L4.1
Format settings : CABAC / 2 Ref Frames
Format settings, CABAC : Yes
Format settings, RefFrames : 2 frames
Format settings, GOP : M=1, N=5
Codec ID : V_MPEG4/ISO/AVC
Duration : 42 min 29 s
Bit rate mode : Variable
Bit rate : 25.2 Mb/s
Maximum bit rate : 35.8 Mb/s
Width : 1 920 pixels
Height : 1 080 pixels
Display aspect ratio : 16:9
Frame rate mode : Constant
Frame rate : 23.976 (24000/1001) FPS
Color space : YUV
Chroma subsampling : 4:2:0
Bit depth : 8 bits
Scan type : Progressive
Bits/(Pixel*Frame) : 0.507
Stream size : 7.48 GiB (88%)
Title : Nancy.Drew.2019.S03E13.The.Ransom.of.the.Forsaken.Soul.1080p.Blu-ray.Remux.AVC.DTS-HD.MA.5.1-SiCFoI
Default : Yes
Forced : No

Audio
ID : 2
ID in the original source medium : 4352 (0x1100)
Format : DTS
Format/Info : Digital Theater Systems
Format profile : MA / Core
Mode : 16
Format settings, Endianness : Big
Codec ID : A_DTS
Duration : 42 min 29 s
Bit rate mode : Variable / Constant
Bit rate : 3 549 kb/s / 1 509 kb/s
Channel(s) : 6 channels
Channel positions : Front: L C R, Side: L R, LFE
Sampling rate : 48.0 kHz
Frame rate : 93.750 FPS (512 SPF)
Bit depth : 24 bits
Compression mode : Lossless / Lossy
Stream size : 1.05 GiB (12%)
Title : DTS-HD MA 5.1
Language : English
Default : Yes
Forced : No
Original source medium : Blu-ray

Text
ID : 3
Format : UTF-8
Codec ID : S_TEXT/UTF8
Codec ID/Info : UTF-8 Plain Text
Duration : 41 min 50 s
Bit rate : 66 b/s
Count of elements : 715
Stream size : 20.5 KiB (0%)
Title : English SDH
Language : English
Default : No
Forced : No

Menu
00:00:00.000 : en:Chapter 01
00:05:52.769 : en:Chapter 02
00:12:33.461 : en:Chapter 03
00:19:35.257 : en:Chapter 04
00:23:36.248 : en:Chapter 05
00:30:34.415 : en:Chapter 06
00:42:00.893 : en:Chapter 07





Nancy Drew S03E13


Nancy Drew S03E13


Nancy Drew S03E13


Nancy Drew S03E13


Nancy Drew S03E13

All episodes