Featured TV Shows


Animals. S36E10

Posted By: Tavaz
1080p (FullHD) / WEBRip IMDb
Animals. S36E10

Animals. S36E10
WEBRip | MKV | 1920x1080 | English | H264 @ 6499 kbps | AAC @ 93 kbps | 52 min 58 s | 2.43 GiB
Genre: Animation, Comedy

An animated comedy focusing on the downtrodden creatures native to Earth’s least-habitable environment: New York City. Whether it’s lovelorn rats, gender-questioning pigeons or aging bedbugs in the midst of a midlife crisis, the awkward small talk, moral ambiguity and existential woes of non-human urbanites prove startlingly similar to our own.

9ff0c5aca2704b83952aba88f9b0f47d.mkv (2.4 GB)



General
Unique ID : 38496962506717559702738911762465993741 (0x1CF63ECB0F999220A76A0FFE62BCB40D)
Complete name : ./9ff0c5aca2704b83952aba88f9b0f47d.mkv
Format : Matroska
Format version : Version 4 / Version 2
File size : 2.43 GiB
Duration : 52 min 58 s
Overall bit rate : 6 578 kb/s
Encoded date : UTC 2018-12-10 01:43:25
Writing application : mkvmerge v28.2.0 ('The Awakening') 64-bit
Writing library : libebml v1.3.6 + libmatroska v1.4.9

Video
ID : 1
Format : AVC
Format/Info : Advanced Video Codec
Format profile : High@L4
Format settings : CABAC / 3 Ref Frames
Format settings, CABAC : Yes
Format settings, RefFrames : 3 frames
Codec ID : V_MPEG4/ISO/AVC
Duration : 52 min 58 s
Bit rate mode : Constant
Bit rate : 6 500 kb/s
Width : 1 920 pixels
Height : 1 080 pixels
Display aspect ratio : 16:9
Frame rate mode : Constant
Frame rate : 29.970 (30000/1001) FPS
Color space : YUV
Chroma subsampling : 4:2:0
Bit depth : 8 bits
Scan type : Progressive
Bits/(Pixel*Frame) : 0.105
Stream size : 2.40 GiB (99%)
Default : Yes
Forced : No

Audio
ID : 2
Format : AAC
Format/Info : Advanced Audio Codec
Format profile : LC
Codec ID : A_AAC-2
Duration : 52 min 58 s
Bit rate : 93.4 kb/s
Channel(s) : 2 channels
Channel positions : Front: L R
Sampling rate : 48.0 kHz
Frame rate : 46.875 FPS (1024 SPF)
Compression mode : Lossy
Delay relative to video : -33 ms
Stream size : 35.4 MiB (1%)
Language : English
Default : Yes
Forced : No





Animals. S36E10


Animals. S36E10


Animals. S36E10


Animals. S36E10


Animals. S36E10

All episodes