Featured TV Shows


Nazi Megastructures S07E02

Posted By: Tavaz
1080p (FullHD) / WEB-DL IMDb
Nazi Megastructures S07E02

Nazi Megastructures S07E02
WEB-DL | MKV | 1920x1080 | English | H264 @ 5766 kbps | E-AC-3 @ 256 kbps | 44 min 13 s | 1.86 GiB
Subtitles: English
Genre: Documentary


In a quest for world domination, the Nazis built some of the biggest and deadliest pieces of military hardware and malevolent technology in history. This is the stories of the engineers who designed them and how these structures sparked a technological revolution that changed warfare forever.

13bde27093ca4fe6a01853a88c3a6f34.mkv (1.9 GB)



General
Unique ID : 219939116314779747907462357513446083203 (0xA576BBA63BBF1D5844FCAEE89B5BCA83)
Complete name : ./13bde27093ca4fe6a01853a88c3a6f34.mkv
Format : Matroska
Format version : Version 4 / Version 2
File size : 1.86 GiB
Duration : 44 min 13 s
Overall bit rate : 6 024 kb/s
Encoded date : UTC 2020-01-09 10:15:51
Writing application : mkvmerge v35.0.0 ('All The Love In The World') 64-bit
Writing library : libebml v1.3.9 + libmatroska v1.5.2

Video
ID : 1
Format : AVC
Format/Info : Advanced Video Codec
Format profile : High@L4
Format settings : CABAC / 4 Ref Frames
Format settings, CABAC : Yes
Format settings, RefFrames : 4 frames
Codec ID : V_MPEG4/ISO/AVC
Duration : 44 min 13 s
Bit rate : 5 766 kb/s
Width : 1 920 pixels
Height : 1 080 pixels
Display aspect ratio : 16:9
Frame rate mode : Constant
Frame rate : 29.970 (30000/1001) FPS
Color space : YUV
Chroma subsampling : 4:2:0
Bit depth : 8 bits
Scan type : Progressive
Bits/(Pixel*Frame) : 0.093
Stream size : 1.78 GiB (96%)
Default : Yes
Forced : No

Audio
ID : 2
Format : E-AC-3
Format/Info : Enhanced Audio Coding 3
Format settings, Endianness : Big
Codec ID : A_EAC3
Duration : 44 min 13 s
Bit rate mode : Constant
Bit rate : 256 kb/s
Channel(s) : 6 channels
Channel positions : Front: L C R, Side: L R, LFE
Sampling rate : 48.0 kHz
Frame rate : 187.500 FPS (256 SPF)
Compression mode : Lossy
Stream size : 81.0 MiB (4%)
Language : English
Service kind : Complete Main
Default : Yes
Forced : No

Text
ID : 3
Format : UTF-8
Codec ID : S_TEXT/UTF8
Codec ID/Info : UTF-8 Plain Text
Duration : 44 min 3 s
Bit rate : 98 b/s
Count of elements : 522
Stream size : 31.9 KiB (0%)
Title : English (SDH)
Language : English
Default : No
Forced : No





Nazi Megastructures S07E02


Nazi Megastructures S07E02


Nazi Megastructures S07E02


Nazi Megastructures S07E02


Nazi Megastructures S07E02

All episodes