Featured TV Shows


New Girl S07E05

Posted By: Tavaz
SD / HDTV IMDb
New Girl S07E05

New Girl S07E05
HDTV | MKV | 720x406 | German | H264 @ 704 kbps | AC-3 @ 384 kbps | 21 min 40 s | 169 MiB
Genre: Komödie

Jessica Day ist eine Lehrerin, die von ihrem Verlobten Spencer betrogen wurde und ihn sowie die gemeinsame Wohnung deswegen verlässt. Über die Webseite Craigslist findet sie eine neue Wohnung und landet so ausgerechnet bei den drei Junggesellen Nick Miller, Schmidt und Coach, wobei letzterer später auszieht. Dafür zieht Winston Bishop ein. Die Jungs sind zunächst nicht gerade begeistert von ihrer neuen Mitbewohnerin, die sich den ganzen Tag Dirty Dancing ansieht, freunden sich jedoch nach und nach mit ihr an. Zusammen mit Jessicas bester Freundin Cece Parekh wollen sie die junge Frau zurück ins Leben holen

atax-new.girl.s07e05-480p.mkv (169.1 MB)
atax-new.girl.s07e05-480p-sample.mkv (8.2 MB)



General
Unique ID : 216037987102576948108606770793992733779 (0xA287672115F8B1417102165EFAB4C453)
Complete name : ./atax-new.girl.s07e05-480p.mkv
Format : Matroska
Format version : Version 4 / Version 2
File size : 169 MiB
Duration : 21 min 40 s
Overall bit rate : 1 090 kb/s
Encoded date : UTC 2018-05-31 07:23:47
Writing application : mkvmerge v23.0.0 ('The Bride Said No') 64-bit
Writing library : libebml v1.3.6 + libmatroska v1.4.9

Video
ID : 1
Format : AVC
Format/Info : Advanced Video Codec
Format profile : High@L3.1
Format settings : CABAC / 5 Ref Frames
Format settings, CABAC : Yes
Format settings, RefFrames : 5 frames
Codec ID : V_MPEG4/ISO/AVC
Duration : 21 min 40 s
Bit rate : 705 kb/s
Width : 720 pixels
Height : 406 pixels
Display aspect ratio : 16:9
Frame rate mode : Constant
Frame rate : 25.000 FPS
Color space : YUV
Chroma subsampling : 4:2:0
Bit depth : 8 bits
Scan type : Progressive
Bits/(Pixel*Frame) : 0.096
Stream size : 109 MiB (65%)
Writing library : x264 core 152 r2854 e9a5903
Encoding settings : cabac=1 / ref=5 / deblock=1:0:0 / analyse=0x3:0x113 / me=hex / subme=8 / psy=1 / psy_rd=1.00:0.00 / mixed_ref=1 / me_range=16 / chroma_me=1 / trellis=2 / 8x8dct=1 / cqm=0 / deadzone=21,11 / fast_pskip=1 / chroma_qp_offset=-2 / threads=13 / lookahead_threads=2 / sliced_threads=0 / nr=0 / decimate=1 / interlaced=0 / bluray_compat=0 / constrained_intra=0 / bframes=3 / b_pyramid=2 / b_adapt=1 / b_bias=0 / direct=3 / weightb=1 / open_gop=0 / weightp=2 / keyint=250 / keyint_min=25 / scenecut=40 / intra_refresh=0 / rc_lookahead=50 / rc=crf / mbtree=1 / crf=19.0 / qcomp=0.60 / qpmin=0 / qpmax=69 / qpstep=4 / ip_ratio=1.40 / aq=1:1.00
Default : Yes
Forced : No

Audio
ID : 2
Format : AC-3
Format/Info : Audio Coding 3
Format settings, Endianness : Big
Codec ID : A_AC3
Duration : 21 min 40 s
Bit rate mode : Constant
Bit rate : 384 kb/s
Channel(s) : 6 channels
Channel positions : Front: L C R, Side: L R, LFE
Sampling rate : 48.0 kHz
Frame rate : 31.250 FPS (1536 SPF)
Bit depth : 16 bits
Compression mode : Lossy
Stream size : 59.5 MiB (35%)
Language : German
Service kind : Complete Main
Default : Yes
Forced : No





New Girl S07E05


New Girl S07E05


New Girl S07E05


New Girl S07E05


New Girl S07E05

All episodes