Featured TV Shows


New Girl S07E07

Posted By: Tavaz
1080p (FullHD) / HDTV IMDb
New Girl S07E07

New Girl S07E07
HDTV | MKV | 1920x1080 | German | H264 @ 4274 kbps | AC-3 @ 384 kbps | 20 min 39 s | 688 MiB
Genre: Komödie

Jessica Day ist eine Lehrerin, die von ihrem Verlobten Spencer betrogen wurde und ihn sowie die gemeinsame Wohnung deswegen verlässt. Über die Webseite Craigslist findet sie eine neue Wohnung und landet so ausgerechnet bei den drei Junggesellen Nick Miller, Schmidt und Coach, wobei letzterer später auszieht. Dafür zieht Winston Bishop ein. Die Jungs sind zunächst nicht gerade begeistert von ihrer neuen Mitbewohnerin, die sich den ganzen Tag Dirty Dancing ansieht, freunden sich jedoch nach und nach mit ihr an. Zusammen mit Jessicas bester Freundin Cece Parekh wollen sie die junge Frau zurück ins Leben holen

atax-new.girl.s07e07-1080p-sample.mkv (34.8 MB)
atax-new.girl.s07e07-1080p.mkv (688.3 MB)



General
Unique ID : 163745235028642050656406495195073951639 (0x7B302F6548FF9D974F76D62636C93797)
Complete name : ./atax-new.girl.s07e07-1080p.mkv
Format : Matroska
Format version : Version 4 / Version 2
File size : 688 MiB
Duration : 20 min 39 s
Overall bit rate : 4 660 kb/s
Encoded date : UTC 2018-06-07 21:33:30
Writing application : mkvmerge v23.0.0 ('The Bride Said No') 64-bit
Writing library : libebml v1.3.6 + libmatroska v1.4.9

Video
ID : 1
Format : AVC
Format/Info : Advanced Video Codec
Format profile : High@L4.1
Format settings : CABAC / 4 Ref Frames
Format settings, CABAC : Yes
Format settings, RefFrames : 4 frames
Codec ID : V_MPEG4/ISO/AVC
Duration : 20 min 39 s
Bit rate : 4 274 kb/s
Width : 1 920 pixels
Height : 1 080 pixels
Display aspect ratio : 16:9
Frame rate mode : Constant
Frame rate : 25.000 FPS
Color space : YUV
Chroma subsampling : 4:2:0
Bit depth : 8 bits
Scan type : Progressive
Bits/(Pixel*Frame) : 0.082
Stream size : 631 MiB (92%)
Writing library : x264 core 152 r2854 e9a5903
Encoding settings : cabac=1 / ref=4 / deblock=1:-3:-3 / analyse=0x3:0x103 / me=umh / subme=7 / psy=1 / psy_rd=1.00:0.00 / mixed_ref=1 / me_range=16 / chroma_me=1 / trellis=1 / 8x8dct=1 / cqm=0 / deadzone=21,11 / fast_pskip=0 / chroma_qp_offset=-2 / threads=30 / lookahead_threads=5 / sliced_threads=0 / nr=0 / decimate=1 / interlaced=0 / bluray_compat=0 / constrained_intra=0 / bframes=3 / b_pyramid=2 / b_adapt=1 / b_bias=0 / direct=1 / weightb=1 / open_gop=0 / weightp=2 / keyint=250 / keyint_min=25 / scenecut=40 / intra_refresh=0 / rc_lookahead=40 / rc=crf / mbtree=1 / crf=20.0 / qcomp=0.60 / qpmin=0 / qpmax=69 / qpstep=4 / ip_ratio=1.40 / aq=1:1.00
Default : Yes
Forced : No

Audio
ID : 2
Format : AC-3
Format/Info : Audio Coding 3
Format settings, Endianness : Big
Codec ID : A_AC3
Duration : 20 min 39 s
Bit rate mode : Constant
Bit rate : 384 kb/s
Channel(s) : 6 channels
Channel positions : Front: L C R, Side: L R, LFE
Sampling rate : 48.0 kHz
Frame rate : 31.250 FPS (1536 SPF)
Bit depth : 16 bits
Compression mode : Lossy
Stream size : 56.7 MiB (8%)
Language : German
Service kind : Complete Main
Default : Yes
Forced : No





New Girl S07E07


New Girl S07E07


New Girl S07E07


New Girl S07E07


New Girl S07E07

All episodes