OK K.O.! Let's Be Heroes S02E10

Posted By: Tavaz
SD / HDTV IMDb
OK K.O.! Let's Be Heroes S02E10

OK K.O.! Let's Be Heroes S02E10
HDTV | MKV | 720x404 | English | H264 @ 697 kbps | AAC @ 122 kbps | 11 min 10 s | 65.8 MiB
Subtitles: English
Genre: Animation

Animated comedy set in the futuristic year of 201X, where the world is populated by video game and manga-esque characters.

ok.k.o.lets.be.heroes.s02e10.hdtv.x264-w4f-sample.mkv (8.4 MB)
ok.k.o.lets.be.heroes.s02e10.hdtv.x264-w4f.mkv (65.8 MB)



General
Unique ID : 242594774771558669792188974452982882902 (0xB6820DDA0D05AF55A33D8B1D512B2256)
Complete name : ./ok.k.o.lets.be.heroes.s02e10.hdtv.x264-w4f.mkv
Format : Matroska
Format version : Version 4 / Version 2
File size : 65.8 MiB
Duration : 11 min 10 s
Overall bit rate : 823 kb/s
Encoded date : UTC 2018-05-19 19:08:43
Writing application : mkvmerge v9.7.1 ('Pandemonium') 64bit
Writing library : libebml v1.3.4 + libmatroska v1.4.5

Video
ID : 1
Format : AVC
Format/Info : Advanced Video Codec
Format profile : High@L3.1
Format settings : CABAC / 10 Ref Frames
Format settings, CABAC : Yes
Format settings, RefFrames : 10 frames
Codec ID : V_MPEG4/ISO/AVC
Duration : 11 min 10 s
Bit rate : 698 kb/s
Width : 720 pixels
Height : 404 pixels
Display aspect ratio : 16:9
Frame rate mode : Constant
Frame rate : 23.976 (24000/1001) FPS
Color space : YUV
Chroma subsampling : 4:2:0
Bit depth : 8 bits
Scan type : Progressive
Bits/(Pixel*Frame) : 0.100
Stream size : 55.8 MiB (85%)
Writing library : x264 core 155 r2901 7d0ff22
Encoding settings : cabac=1 / ref=10 / deblock=1:1:1 / analyse=0x3:0x113 / me=hex / subme=8 / psy=1 / psy_rd=0.40:0.00 / mixed_ref=1 / me_range=16 / chroma_me=1 / trellis=2 / 8x8dct=1 / cqm=0 / deadzone=21,11 / fast_pskip=1 / chroma_qp_offset=-2 / threads=12 / lookahead_threads=2 / sliced_threads=0 / nr=0 / decimate=1 / interlaced=0 / bluray_compat=0 / constrained_intra=0 / bframes=5 / b_pyramid=2 / b_adapt=1 / b_bias=0 / direct=3 / weightb=1 / open_gop=0 / weightp=2 / keyint=250 / keyint_min=23 / scenecut=40 / intra_refresh=0 / rc_lookahead=50 / rc=crf / mbtree=1 / crf=21.0 / qcomp=0.60 / qpmin=0 / qpmax=69 / qpstep=4 / ip_ratio=1.40 / aq=1:0.60
Default : Yes
Forced : No
Color range : Limited
Matrix coefficients : BT.709

Audio
ID : 2
Format : AAC
Format/Info : Advanced Audio Codec
Format profile : LC
Codec ID : A_AAC-2
Duration : 11 min 10 s
Bit rate : 122 kb/s
Channel(s) : 2 channels
Channel positions : Front: L R
Sampling rate : 48.0 kHz
Frame rate : 46.875 FPS (1024 SPF)
Compression mode : Lossy
Delay relative to video : 20 ms
Stream size : 9.77 MiB (15%)
Language : English
Default : Yes
Forced : No

Text
ID : 3
Format : UTF-8
Codec ID : S_TEXT/UTF8
Codec ID/Info : UTF-8 Plain Text
Duration : 11 min 8 s
Bit rate : 122 b/s
Count of elements : 274
Stream size : 9.96 KiB (0%)
Language : English
Default : No
Forced : No





OK K.O.! Let's Be Heroes S02E10


OK K.O.! Let's Be Heroes S02E10


OK K.O.! Let's Be Heroes S02E10


OK K.O.! Let's Be Heroes S02E10


OK K.O.! Let's Be Heroes S02E10

All episodes