Index
# A B C D E F G H I J K L M N O P Q R S T U V W Y Z
Tags
Language
Tags

Featured TV Shows


Orange Is the New Black S01E01

Posted By: Tavaz
1080p (FullHD) / BDRip IMDb
Orange Is the New Black S01E01

Orange Is the New Black S01E01
BDRip | MKV | 1920x1080 | English | H265 @ 5506 kbps | DTS | 51 min 8 s | 2.86 GiB
Subtitles: English
Genre: Comedy, Drama


A crime she committed in her youthful past sends Piper Chapman to a women's prison, where she trades her comfortable New York life for one of unexpected camaraderie and conflict in an eccentric group of fellow inmates.

f3ee8c14b8264f49a883faa245519e2d.mkv (2.9 GB)



General
Unique ID : 233428842024608493779063559431570660389 (0xAF9CC279FCD3952BA772A28614511C25)
Complete name : ./f3ee8c14b8264f49a883faa245519e2d.mkv
Format : Matroska
Format version : Version 2
File size : 2.86 GiB
Duration : 51 min 8 s
Overall bit rate : 7 998 kb/s
Movie name : Orange.Is.the.New.Black.S01E01.I.Wasn't.Ready.1080p.BluRay.10Bit.Dts.H-265-d3g
Encoded date : UTC 2021-06-08 19:43:53
Writing application : DVDFab 12.0.3.2
Writing library : libebml v1.3.4 + libmatroska v1.4.5

Video
ID : 1
Format : HEVC
Format/Info : High Efficiency Video Coding
Format profile : Main 10@L4@Main
Codec ID : V_MPEGH/ISO/HEVC
Duration : 51 min 8 s
Bit rate : 5 506 kb/s
Width : 1 920 pixels
Height : 1 080 pixels
Display aspect ratio : 16:9
Frame rate mode : Constant
Frame rate : 23.976 (24000/1001) FPS
Color space : YUV
Chroma subsampling : 4:2:0
Bit depth : 10 bits
Bits/(Pixel*Frame) : 0.111
Stream size : 1.97 GiB (69%)
Default : Yes
Forced : No
Color range : Limited
Color primaries : BT.709
Transfer characteristics : BT.709
Matrix coefficients : BT.709

Audio
ID : 2
Format : DTS
Format/Info : Digital Theater Systems
Format profile : MA / Core
Mode : 16
Format settings, Endianness : Big
Codec ID : A_DTS
Duration : 51 min 8 s
Bit rate mode : Variable / Constant
Bit rate : 2 397 kb/s / 1 509 kb/s
Channel(s) : 6 channels
Channel positions : Front: L C R, Side: L R, LFE
Sampling rate : 48.0 kHz
Frame rate : 93.750 FPS (512 SPF)
Bit depth : 24 bits
Compression mode : Lossless / Lossy
Stream size : 877 MiB (30%)
Language : English
Default : Yes
Forced : No

Text #1
ID : 3
Format : PGS
Codec ID : S_HDMV/PGS
Codec ID/Info : Picture based subtitle format used on BDs/HD-DVDs
Duration : 49 min 44 s
Bit rate : 45.8 kb/s
Count of elements : 1560
Stream size : 16.3 MiB (1%)
Language : English
Default : Yes
Forced : No

Text #2
ID : 4
Format : PGS
Codec ID : S_HDMV/PGS
Codec ID/Info : Picture based subtitle format used on BDs/HD-DVDs
Duration : 49 min 50 s
Bit rate : 49.2 kb/s
Count of elements : 1710
Stream size : 17.5 MiB (1%)
Language : English
Default : No
Forced : No

Menu
00:00:00.000 : en:00:00:00.000
00:03:06.603 : en:00:03:06.603
00:09:59.933 : en:00:09:59.933
00:17:10.112 : en:00:17:10.112
00:25:32.448 : en:00:25:32.448
00:35:25.540 : en:00:35:25.540
00:42:20.079 : en:00:42:20.079
00:49:56.202 : en:00:49:56.202





Orange Is the New Black S01E01


Orange Is the New Black S01E01


Orange Is the New Black S01E01


Orange Is the New Black S01E01


Orange Is the New Black S01E01

All episodes