Index
# A B C D E F G H I J K L M N O P Q R S T U V W Y Z
Tags
Language
Tags

Featured TV Shows


Orange Is the New Black S01E08

Posted By: Tavaz
1080p (FullHD) / BDRip IMDb
Orange Is the New Black S01E08

Orange Is the New Black S01E08
BDRip | MKV | 1920x1080 | English | H265 @ 5503 kbps | DTS | 58 min 33 s | 3.19 GiB
Subtitles: English
Genre: Comedy, Drama


A crime she committed in her youthful past sends Piper Chapman to a women's prison, where she trades her comfortable New York life for one of unexpected camaraderie and conflict in an eccentric group of fellow inmates.

8826ac4b70194500be103c0415ec2ace.mkv (3.2 GB)



General
Unique ID : 230570466441106564842142437847867106086 (0xAD7641ADFBBFD6D6AE8241A7A618A326)
Complete name : ./8826ac4b70194500be103c0415ec2ace.mkv
Format : Matroska
Format version : Version 2
File size : 3.19 GiB
Duration : 58 min 33 s
Overall bit rate : 7 810 kb/s
Movie name : Orange.Is.the.New.Black.S01E08.Moscow.Mule.1080p.BluRay.10Bit.Dts.H-265-d3g
Encoded date : UTC 2021-06-08 20:23:59
Writing application : DVDFab 12.0.3.2
Writing library : libebml v1.3.4 + libmatroska v1.4.5

Video
ID : 1
Format : HEVC
Format/Info : High Efficiency Video Coding
Format profile : Main 10@L4@Main
Codec ID : V_MPEGH/ISO/HEVC
Duration : 58 min 32 s
Bit rate : 5 503 kb/s
Width : 1 920 pixels
Height : 1 080 pixels
Display aspect ratio : 16:9
Frame rate mode : Constant
Frame rate : 23.976 (24000/1001) FPS
Color space : YUV
Chroma subsampling : 4:2:0
Bit depth : 10 bits
Bits/(Pixel*Frame) : 0.111
Stream size : 2.25 GiB (70%)
Default : Yes
Forced : No
Color range : Limited
Color primaries : BT.709
Transfer characteristics : BT.709
Matrix coefficients : BT.709

Audio
ID : 2
Format : DTS
Format/Info : Digital Theater Systems
Format profile : MA / Core
Mode : 16
Format settings, Endianness : Big
Codec ID : A_DTS
Duration : 58 min 33 s
Bit rate mode : Variable / Constant
Bit rate : 2 215 kb/s / 1 509 kb/s
Channel(s) : 6 channels
Channel positions : Front: L C R, Side: L R, LFE
Sampling rate : 48.0 kHz
Frame rate : 93.750 FPS (512 SPF)
Bit depth : 24 bits
Compression mode : Lossless / Lossy
Stream size : 928 MiB (28%)
Language : English
Default : Yes
Forced : No

Text #1
ID : 3
Format : PGS
Codec ID : S_HDMV/PGS
Codec ID/Info : Picture based subtitle format used on BDs/HD-DVDs
Duration : 55 min 43 s
Bit rate : 43.4 kb/s
Count of elements : 1596
Stream size : 17.3 MiB (1%)
Language : English
Default : Yes
Forced : No

Text #2
ID : 4
Format : PGS
Codec ID : S_HDMV/PGS
Codec ID/Info : Picture based subtitle format used on BDs/HD-DVDs
Duration : 57 min 10 s
Bit rate : 48.2 kb/s
Count of elements : 1982
Stream size : 19.7 MiB (1%)
Language : English
Default : No
Forced : No

Menu
00:00:00.000 : en:00:00:00.000
00:01:21.081 : en:00:01:21.081
00:09:00.957 : en:00:09:00.957
00:19:04.935 : en:00:19:04.935
00:26:19.411 : en:00:26:19.411
00:35:38.011 : en:00:35:38.011
00:45:27.224 : en:00:45:27.224
00:57:20.896 : en:00:57:20.896





Orange Is the New Black S01E08


Orange Is the New Black S01E08


Orange Is the New Black S01E08


Orange Is the New Black S01E08


Orange Is the New Black S01E08

All episodes