Index
# A B C D E F G H I J K L M N O P Q R S T U V W Y Z
Tags
Language
Tags

Featured TV Shows


Orange Is the New Black S02E04

Posted By: Tavaz
1080p (FullHD) / BDRip IMDb
Orange Is the New Black S02E04

Orange Is the New Black S02E04
BDRip | MKV | 1920x1080 | English | H265 @ 5488 kbps | DTS | 1 h 0 min | 3.61 GiB
Subtitles: English
Genre: Comedy, Drama


A crime she committed in her youthful past sends Piper Chapman to a women's prison, where she trades her comfortable New York life for one of unexpected camaraderie and conflict in an eccentric group of fellow inmates.

aa81b7f91aa941769188afb187cf6b73.mkv (3.6 GB)



General
Unique ID : 174406312873337958828843702494240331707 (0x83356F1D97A2B05F8F0C2F39647E57BB)
Complete name : ./aa81b7f91aa941769188afb187cf6b73.mkv
Format : Matroska
Format version : Version 2
File size : 3.61 GiB
Duration : 1 h 0 min
Overall bit rate : 8 610 kb/s
Movie name : Orange.Is.the.New.Black.S02E04.A.Whole.Other.Hole.BluRay.1080p.10bit.Dts.H265-d3g
Encoded date : UTC 2021-06-08 21:18:50
Writing application : DVDFab 12.0.3.2
Writing library : libebml v1.3.4 + libmatroska v1.4.5

Video
ID : 1
Format : HEVC
Format/Info : High Efficiency Video Coding
Format profile : Main 10@L4@Main
Codec ID : V_MPEGH/ISO/HEVC
Duration : 1 h 0 min
Bit rate : 5 488 kb/s
Width : 1 920 pixels
Height : 1 080 pixels
Display aspect ratio : 16:9
Frame rate mode : Constant
Frame rate : 23.976 (24000/1001) FPS
Color space : YUV
Chroma subsampling : 4:2:0
Bit depth : 10 bits
Bits/(Pixel*Frame) : 0.110
Stream size : 2.30 GiB (64%)
Default : Yes
Forced : No
Color range : Limited
Color primaries : BT.709
Transfer characteristics : BT.709
Matrix coefficients : BT.709

Audio
ID : 2
Format : DTS
Format/Info : Digital Theater Systems
Format profile : MA / Core
Mode : 16
Format settings, Endianness : Big
Codec ID : A_DTS
Duration : 1 h 0 min
Bit rate mode : Variable / Constant
Bit rate : 3 007 kb/s / 1 509 kb/s
Channel(s) : 6 channels
Channel positions : Front: L C R, Side: L R, LFE
Sampling rate : 48.0 kHz
Frame rate : 93.750 FPS (512 SPF)
Bit depth : 24 bits
Compression mode : Lossless / Lossy
Stream size : 1.26 GiB (35%)
Language : English
Default : Yes
Forced : No

Text #1
ID : 3
Format : PGS
Codec ID : S_HDMV/PGS
Codec ID/Info : Picture based subtitle format used on BDs/HD-DVDs
Duration : 56 min 25 s
Bit rate : 56.9 kb/s
Count of elements : 1728
Stream size : 23.0 MiB (1%)
Language : English
Default : Yes
Forced : No

Text #2
ID : 4
Format : PGS
Codec ID : S_HDMV/PGS
Codec ID/Info : Picture based subtitle format used on BDs/HD-DVDs
Duration : 59 min 39 s
Bit rate : 59.5 kb/s
Count of elements : 1952
Stream size : 25.4 MiB (1%)
Language : English
Default : No
Forced : No

Menu
00:00:00.000 : en:Chapter 01
00:01:19.370 : en:Chapter 02
00:06:45.571 : en:Chapter 03
00:16:05.381 : en:Chapter 04
00:26:21.871 : en:Chapter 05
00:37:31.999 : en:Chapter 06
00:46:20.402 : en:Chapter 07
00:58:45.230 : en:Chapter 08





Orange Is the New Black S02E04


Orange Is the New Black S02E04


Orange Is the New Black S02E04


Orange Is the New Black S02E04


Orange Is the New Black S02E04

All episodes