Index
# A B C D E F G H I J K L M N O P Q R S T U V W Y Z
Tags
Language
Tags

Featured TV Shows


Orange Is the New Black S02E12

Posted By: Tavaz
1080p (FullHD) / BDRip IMDb
Orange Is the New Black S02E12

Orange Is the New Black S02E12
BDRip | MKV | 1920x1080 | English | H265 @ 5500 kbps | DTS | 59 min 45 s | 3.76 GiB
Subtitles: English
Genre: Commedia, Dramma


Piper Chapman ha commesso un errore, una volta sola. Dieci anni fa, seguendo la sua amante lesbica spacciatrice, ha trasportato una valigia piena di soldi. Ora è una donna diversa, ma deve pagare il suo debito con la giustizia e scontare 15 mesi in prigione. Ispirata a una storia vera, Orange Is The New Black mescola dramma e commedia, e descrive la vita in prigione tra angherie e frustrazioni. Piper è sulla difensiva, non sa di chi fidarsi, eppure non tutte le detenute paiono sue avversarie.

95ec04a4688743c0b0881472c6a2fb16.mkv (3.8 GB)



General
Unique ID : 189721583441490351528990356433558211988 (0x8EBB0C40DB9E5761A06D56F6ECE28D94)
Complete name : ./95ec04a4688743c0b0881472c6a2fb16.mkv
Format : Matroska
Format version : Version 2
File size : 3.76 GiB
Duration : 59 min 45 s
Overall bit rate : 8 998 kb/s
Movie name : Orange.Is.the.New.Black.S02E12.It.Was.The.Change.BluRay.1080p.10bit.Dts.H265-d3g
Encoded date : UTC 2021-06-08 22:07:15
Writing application : DVDFab 12.0.3.2
Writing library : libebml v1.3.4 + libmatroska v1.4.5

Video
ID : 1
Format : HEVC
Format/Info : High Efficiency Video Coding
Format profile : Main 10@L4@Main
Codec ID : V_MPEGH/ISO/HEVC
Duration : 59 min 44 s
Bit rate : 5 501 kb/s
Width : 1 920 pixels
Height : 1 080 pixels
Display aspect ratio : 16:9
Frame rate mode : Constant
Frame rate : 23.976 (24000/1001) FPS
Color space : YUV
Chroma subsampling : 4:2:0
Bit depth : 10 bits
Bits/(Pixel*Frame) : 0.111
Stream size : 2.30 GiB (61%)
Default : Yes
Forced : No
Color range : Limited
Color primaries : BT.709
Transfer characteristics : BT.709
Matrix coefficients : BT.709

Audio
ID : 2
Format : DTS
Format/Info : Digital Theater Systems
Format profile : MA / Core
Mode : 16
Format settings, Endianness : Big
Codec ID : A_DTS
Duration : 59 min 45 s
Bit rate mode : Variable / Constant
Bit rate : 3 380 kb/s / 1 509 kb/s
Channel(s) : 6 channels
Channel positions : Front: L C R, Side: L R, LFE
Sampling rate : 48.0 kHz
Frame rate : 93.750 FPS (512 SPF)
Bit depth : 24 bits
Compression mode : Lossless / Lossy
Stream size : 1.41 GiB (38%)
Language : English
Default : Yes
Forced : No

Text #1
ID : 3
Format : PGS
Codec ID : S_HDMV/PGS
Codec ID/Info : Picture based subtitle format used on BDs/HD-DVDs
Duration : 55 min 38 s
Bit rate : 57.8 kb/s
Count of elements : 1684
Stream size : 23.0 MiB (1%)
Language : English
Default : Yes
Forced : No

Text #2
ID : 4
Format : PGS
Codec ID : S_HDMV/PGS
Codec ID/Info : Picture based subtitle format used on BDs/HD-DVDs
Duration : 59 min 26 s
Bit rate : 61.1 kb/s
Count of elements : 1932
Stream size : 26.0 MiB (1%)
Language : English
Default : No
Forced : No

Menu
00:00:00.000 : en:Chapter 01
00:01:19.162 : en:Chapter 02
00:09:29.068 : en:Chapter 03
00:17:31.133 : en:Chapter 04
00:28:38.299 : en:Chapter 05
00:39:02.882 : en:Chapter 06
00:51:36.093 : en:Chapter 07
00:58:29.380 : en:Chapter 08





Orange Is the New Black S02E12


Orange Is the New Black S02E12


Orange Is the New Black S02E12


Orange Is the New Black S02E12


Orange Is the New Black S02E12

All episodes