Index
# A B C D E F G H I J K L M N O P Q R S T U V W Y Z
Tags
Language
Tags

Featured TV Shows


Orange Is the New Black S04E08

Posted By: Tavaz
1080p (FullHD) / BDRip IMDb
Orange Is the New Black S04E08

Orange Is the New Black S04E08
BDRip | MKV | 1920x1080 | English | H265 @ 5499 kbps | DTS | 58 min 31 s | 3.56 GiB
Subtitles: English
Genre: Komedi, Drama


A crime she committed in her youthful past sends Piper Chapman to a women's prison, where she trades her comfortable New York life for one of unexpected camaraderie and conflict in an eccentric group of fellow inmates.

e3fc31462d1870960becb0047d476fad.mkv (3.6 GB)



General
Unique ID : 197710314550912495449902215720000507397 (0x94BD9F1B54A394259C2A0AE35B2B4E05)
Complete name : ./e3fc31462d1870960becb0047d476fad.mkv
Format : Matroska
Format version : Version 2
File size : 3.56 GiB
Duration : 58 min 31 s
Overall bit rate : 8 720 kb/s
Movie name : Orange.Is.the.New.Black.S04E08.Friends.in.Low.Places.1080p.BluRay.10bit.Dts.H265-d3g
Encoded date : UTC 2021-06-09 00:28:29
Writing application : DVDFab 12.0.3.2
Writing library : libebml v1.3.4 + libmatroska v1.4.5

Video
ID : 1
Format : HEVC
Format/Info : High Efficiency Video Coding
Format profile : Main 10@L4@Main
Codec ID : V_MPEGH/ISO/HEVC
Duration : 58 min 31 s
Bit rate : 5 500 kb/s
Width : 1 920 pixels
Height : 1 080 pixels
Display aspect ratio : 16:9
Frame rate mode : Constant
Frame rate : 23.976 (24000/1001) FPS
Color space : YUV
Chroma subsampling : 4:2:0
Bit depth : 10 bits
Bits/(Pixel*Frame) : 0.111
Stream size : 2.25 GiB (63%)
Default : Yes
Forced : No
Color range : Limited
Color primaries : BT.709
Transfer characteristics : BT.709
Matrix coefficients : BT.709

Audio
ID : 2
Format : DTS
Format/Info : Digital Theater Systems
Format profile : MA / Core
Mode : 16
Format settings, Endianness : Big
Codec ID : A_DTS
Duration : 58 min 31 s
Bit rate mode : Variable / Constant
Bit rate : 3 162 kb/s / 1 509 kb/s
Channel(s) : 6 channels
Channel positions : Front: L C R, Side: L R, LFE
Sampling rate : 48.0 kHz
Frame rate : 93.750 FPS (512 SPF)
Bit depth : 24 bits
Compression mode : Lossless / Lossy
Stream size : 1.29 GiB (36%)
Language : English
Default : Yes
Forced : No

Text
ID : 3
Format : PGS
Codec ID : S_HDMV/PGS
Codec ID/Info : Picture based subtitle format used on BDs/HD-DVDs
Duration : 58 min 21 s
Bit rate : 54.8 kb/s
Count of elements : 2130
Stream size : 22.9 MiB (1%)
Language : English
Default : Yes
Forced : No

Menu
00:00:00.000 : en:Chapter 1
00:01:13.865 : en:Chapter 2
00:11:07.375 : en:Chapter 3
00:18:57.845 : en:Chapter 4
00:30:19.526 : en:Chapter 5
00:39:15.520 : en:Chapter 6
00:49:15.536 : en:Chapter 7
00:57:15.599 : en:Chapter 8





Orange Is the New Black S04E08


Orange Is the New Black S04E08


Orange Is the New Black S04E08


Orange Is the New Black S04E08


Orange Is the New Black S04E08

All episodes