Index
# A B C D E F G H I J K L M N O P Q R S T U V W Y Z
Tags
Language
Tags

Featured TV Shows


Orange Is the New Black S05E05

Posted By: Tavaz
1080p (FullHD) / BDRip IMDb
Orange Is the New Black S05E05

Orange Is the New Black S05E05
BDRip | MKV | 1920x1080 | English | H265 @ 5505 kbps | DTS | 58 min 41 s | 3.58 GiB
Subtitles: English
Genre: Commedia, Dramma


Piper Chapman ha commesso un errore, una volta sola. Dieci anni fa, seguendo la sua amante lesbica spacciatrice, ha trasportato una valigia piena di soldi. Ora è una donna diversa, ma deve pagare il suo debito con la giustizia e scontare 15 mesi in prigione. Ispirata a una storia vera, Orange Is The New Black mescola dramma e commedia, e descrive la vita in prigione tra angherie e frustrazioni. Piper è sulla difensiva, non sa di chi fidarsi, eppure non tutte le detenute paiono sue avversarie.

60312bc5653077ccceec24f81e133208.mkv (3.6 GB)



General
Unique ID : 219849002657547753032115543342871293354 (0xA56560B3F9528F3DACBC4E4490212DAA)
Complete name : ./60312bc5653077ccceec24f81e133208.mkv
Format : Matroska
Format version : Version 2
File size : 3.58 GiB
Duration : 58 min 41 s
Overall bit rate : 8 725 kb/s
Movie name : Orange.Is.the.New.Black.S05E05.Sing.It.White.Effie.1080p.BluRay.10bit.Dts.H265-d3g
Encoded date : UTC 2021-06-09 01:31:04
Writing application : DVDFab 12.0.3.2
Writing library : libebml v1.3.4 + libmatroska v1.4.5

Video
ID : 1
Format : HEVC
Format/Info : High Efficiency Video Coding
Format profile : Main 10@L4@Main
Codec ID : V_MPEGH/ISO/HEVC
Duration : 58 min 41 s
Bit rate : 5 505 kb/s
Width : 1 920 pixels
Height : 1 080 pixels
Display aspect ratio : 16:9
Frame rate mode : Constant
Frame rate : 23.976 (24000/1001) FPS
Color space : YUV
Chroma subsampling : 4:2:0
Bit depth : 10 bits
Bits/(Pixel*Frame) : 0.111
Stream size : 2.26 GiB (63%)
Default : Yes
Forced : No
Color range : Limited
Color primaries : BT.709
Transfer characteristics : BT.709
Matrix coefficients : BT.709

Audio
ID : 2
Format : DTS
Format/Info : Digital Theater Systems
Format profile : MA / Core
Mode : 16
Format settings, Endianness : Big
Codec ID : A_DTS
Duration : 58 min 41 s
Bit rate mode : Variable / Constant
Bit rate : 3 146 kb/s / 1 509 kb/s
Channel(s) : 6 channels
Channel positions : Front: L C R, Side: L R, LFE
Sampling rate : 48.0 kHz
Frame rate : 93.750 FPS (512 SPF)
Bit depth : 24 bits
Compression mode : Lossless / Lossy
Stream size : 1.29 GiB (36%)
Language : English
Default : Yes
Forced : No

Text
ID : 3
Format : PGS
Codec ID : S_HDMV/PGS
Codec ID/Info : Picture based subtitle format used on BDs/HD-DVDs
Duration : 57 min 20 s
Bit rate : 72.4 kb/s
Count of elements : 2212
Stream size : 29.7 MiB (1%)
Language : English
Default : Yes
Forced : No

Menu
00:00:00.000 : en:Chapter 1
00:01:19.203 : en:Chapter 2
00:09:45.210 : en:Chapter 3
00:20:57.423 : en:Chapter 4
00:29:17.464 : en:Chapter 5
00:42:36.846 : en:Chapter 6
00:48:28.656 : en:Chapter 7
00:53:39.258 : en:Chapter 8
00:57:23.857 : en:Chapter 9





Orange Is the New Black S05E05


Orange Is the New Black S05E05


Orange Is the New Black S05E05


Orange Is the New Black S05E05


Orange Is the New Black S05E05

All episodes