Featured TV Shows


Our Cartoon President S01E03

Posted By: Tavaz
SD / HDTV IMDb
Our Cartoon President S01E03

Our Cartoon President S01E03
HDTV | MKV | 720x404 | English | H264 @ 421 kbps | AAC @ 123 kbps | 25 min 38 s | 100 MiB
Genre: Animation, Comedy

A hilarious look into the Trump presidency, animation style. Starring two-dimensional avatars of Donald Trump and his merry band of insiders and family members, this cutting-edge comedy presents the truish adventures of Trump, his confidants and bon vivants through the eyes of an imaginary documentary crew.

sample-our.cartoon.president.s01e03.hdtv.x264-crooks.mkv (4.2 MB)
Our.Cartoon.President.S01E03.HDTV.x264-CROOKS.mkv (100.3 MB)



General
Unique ID : 162646691187503230474129981161865491252 (0x7A5C9D00A97A0CE6431917A316643334)
Complete name : ./Our.Cartoon.President.S01E03.HDTV.x264-CROOKS.mkv
Format : Matroska
Format version : Version 4 / Version 2
File size : 100 MiB
Duration : 25 min 38 s
Overall bit rate : 547 kb/s
Encoded date : UTC 2018-02-19 01:43:39
Writing application : mkvmerge v8.8.0 ('Wind at my back') 64bit
Writing library : libebml v1.3.3 + libmatroska v1.4.4

Video
ID : 1
Format : AVC
Format/Info : Advanced Video Codec
Format profile : High@L3.1
Format settings : CABAC / 5 Ref Frames
Format settings, CABAC : Yes
Format settings, RefFrames : 5 frames
Codec ID : V_MPEG4/ISO/AVC
Duration : 25 min 38 s
Bit rate : 422 kb/s
Width : 720 pixels
Height : 404 pixels
Display aspect ratio : 16:9
Frame rate mode : Constant
Frame rate : 23.976 (24000/1001) FPS
Color space : YUV
Chroma subsampling : 4:2:0
Bit depth : 8 bits
Scan type : Progressive
Bits/(Pixel*Frame) : 0.060
Stream size : 77.3 MiB (77%)
Writing library : x264 core 152 r2851 ba24899
Encoding settings : cabac=1 / ref=5 / deblock=1:0:0 / analyse=0x3:0x113 / me=hex / subme=8 / psy=1 / psy_rd=1.00:0.00 / mixed_ref=1 / me_range=16 / chroma_me=1 / trellis=2 / 8x8dct=1 / cqm=0 / deadzone=21,11 / fast_pskip=1 / chroma_qp_offset=-2 / threads=13 / lookahead_threads=2 / sliced_threads=0 / nr=0 / decimate=1 / interlaced=0 / bluray_compat=0 / constrained_intra=0 / bframes=3 / b_pyramid=2 / b_adapt=1 / b_bias=0 / direct=3 / weightb=1 / open_gop=0 / weightp=2 / keyint=250 / keyint_min=23 / scenecut=40 / intra_refresh=0 / rc_lookahead=50 / rc=crf / mbtree=1 / crf=19.0 / qcomp=0.60 / qpmin=0 / qpmax=69 / qpstep=4 / ip_ratio=1.40 / aq=1:1.00
Default : Yes
Forced : No
Color range : Limited
Matrix coefficients : BT.709

Audio
ID : 2
Format : AAC
Format/Info : Advanced Audio Codec
Format profile : LC
Codec ID : A_AAC-2
Duration : 25 min 38 s
Bit rate : 123 kb/s
Channel(s) : 2 channels
Channel positions : Front: L R
Sampling rate : 48.0 kHz
Frame rate : 46.875 FPS (1024 SPF)
Compression mode : Lossy
Delay relative to video : 20 ms
Stream size : 22.6 MiB (23%)
Default : Yes
Forced : No





Our Cartoon President S01E03


Our Cartoon President S01E03


Our Cartoon President S01E03


Our Cartoon President S01E03


Our Cartoon President S01E03

All episodes