Featured TV Shows


Our Cartoon President S01E03

Posted By: Tavaz
720p (HD) / WEB-DL IMDb
Our Cartoon President S01E03

Our Cartoon President S01E03
WEB-DL | MKV | 1280x720 | English | H264 @ 1214 kbps | E-AC-3 @ 224 kbps | 25 min 42 s | 265 MiB
Genre: Animation, Comedy

A hilarious look into the Trump presidency, animation style. Starring two-dimensional avatars of Donald Trump and his merry band of insiders and family members, this cutting-edge comedy presents the truish adventures of Trump, his confidants and bon vivants through the eyes of an imaginary documentary crew.

0462513eb91f4850a4d46079acfbd2ce.mkv (264.8 MB)



General
Unique ID : 191042430681485426901123761080660610400 (0x8FB96F0CD92A719899317DDF57FF4D60)
Complete name : ./0462513eb91f4850a4d46079acfbd2ce.mkv
Format : Matroska
Format version : Version 4 / Version 2
File size : 265 MiB
Duration : 25 min 42 s
Overall bit rate mode : Variable
Overall bit rate : 1 440 kb/s
Encoded date : UTC 2018-02-20 11:33:04
Writing application : mkvmerge v13.0.0 ('The Juggler') 64bit
Writing library : libebml v1.3.4 + libmatroska v1.4.5

Video
ID : 1
Format : AVC
Format/Info : Advanced Video Codec
Format profile : High@L3.1
Format settings : CABAC / 5 Ref Frames
Format settings, CABAC : Yes
Format settings, RefFrames : 5 frames
Codec ID : V_MPEG4/ISO/AVC
Duration : 25 min 42 s
Bit rate mode : Variable
Bit rate : 1 214 kb/s
Maximum bit rate : 4 500 kb/s
Width : 1 280 pixels
Height : 720 pixels
Display aspect ratio : 16:9
Frame rate mode : Constant
Frame rate : 29.970 (30000/1001) FPS
Color space : YUV
Chroma subsampling : 4:2:0
Bit depth : 8 bits
Scan type : Progressive
Bits/(Pixel*Frame) : 0.044
Stream size : 223 MiB (84%)
Default : Yes
Forced : No
Color range : Limited
Color primaries : BT.709
Transfer characteristics : BT.709
Matrix coefficients : BT.709

Audio
ID : 2
Format : E-AC-3
Format/Info : Enhanced Audio Coding 3
Format settings, Endianness : Big
Codec ID : A_EAC3
Duration : 25 min 42 s
Bit rate mode : Constant
Bit rate : 224 kb/s
Channel(s) : 2 channels
Channel positions : Front: L R
Sampling rate : 48.0 kHz
Frame rate : 187.500 FPS (256 SPF)
Compression mode : Lossy
Stream size : 41.2 MiB (16%)
Language : English
Service kind : Complete Main
Default : Yes
Forced : No





Our Cartoon President S01E03


Our Cartoon President S01E03


Our Cartoon President S01E03


Our Cartoon President S01E03


Our Cartoon President S01E03

All episodes