Featured TV Shows


Our Cartoon President S01E04

Posted By: Tavaz
1080p (FullHD) / WEB-DL IMDb
Our Cartoon President S01E04

Our Cartoon President S01E04
WEB-DL | MKV | 1920x1080 | English | H264 @ 2291 kbps | E-AC-3 @ 224 kbps | 27 min 18 s | 492 MiB
Subtitles: English
Genre: Animation, Comedy

A hilarious look into the Trump presidency, animation style. Starring two-dimensional avatars of Donald Trump and his merry band of insiders and family members, this cutting-edge comedy presents the truish adventures of Trump, his confidants and bon vivants through the eyes of an imaginary documentary crew.

7b80bc47d8e34287bff0a9e0c29a28ca.mkv (491.6 MB)



General
Unique ID : 177933720651646568033509756503245998713 (0x85DCC9BF14E4519AB46A43E186D04A79)
Complete name : ./7b80bc47d8e34287bff0a9e0c29a28ca.mkv
Format : Matroska
Format version : Version 4 / Version 2
File size : 492 MiB
Duration : 27 min 18 s
Overall bit rate mode : Variable
Overall bit rate : 2 518 kb/s
Encoded date : UTC 2018-03-04 20:22:19
Writing application : mkvmerge v13.0.0 ('The Juggler') 64bit
Writing library : libebml v1.3.4 + libmatroska v1.4.5

Video
ID : 1
Format : AVC
Format/Info : Advanced Video Codec
Format profile : High@L4
Format settings : CABAC / 4 Ref Frames
Format settings, CABAC : Yes
Format settings, RefFrames : 4 frames
Codec ID : V_MPEG4/ISO/AVC
Duration : 27 min 18 s
Bit rate mode : Variable
Bit rate : 2 291 kb/s
Maximum bit rate : 15.0 Mb/s
Width : 1 920 pixels
Height : 1 080 pixels
Display aspect ratio : 16:9
Frame rate mode : Constant
Frame rate : 23.976 (24000/1001) FPS
Color space : YUV
Chroma subsampling : 4:2:0
Bit depth : 8 bits
Scan type : Progressive
Bits/(Pixel*Frame) : 0.046
Stream size : 447 MiB (91%)
Default : Yes
Forced : No
Color range : Limited
Color primaries : BT.709
Transfer characteristics : BT.709
Matrix coefficients : BT.709

Audio
ID : 2
Format : E-AC-3
Format/Info : Enhanced Audio Coding 3
Format settings, Endianness : Big
Codec ID : A_EAC3
Duration : 27 min 18 s
Bit rate mode : Constant
Bit rate : 224 kb/s
Channel(s) : 2 channels
Channel positions : Front: L R
Sampling rate : 48.0 kHz
Frame rate : 187.500 FPS (256 SPF)
Compression mode : Lossy
Stream size : 43.7 MiB (9%)
Language : English
Service kind : Complete Main
Default : Yes
Forced : No

Text #1
ID : 3
Format : UTF-8
Codec ID : S_TEXT/UTF8
Codec ID/Info : UTF-8 Plain Text
Duration : 26 min 53 s
Bit rate : 119 b/s
Count of elements : 622
Stream size : 23.5 KiB (0%)
Language : English
Default : No
Forced : No

Text #2
ID : 4
Format : UTF-8
Codec ID : S_TEXT/UTF8
Codec ID/Info : UTF-8 Plain Text
Duration : 26 min 53 s
Bit rate : 122 b/s
Count of elements : 632
Stream size : 24.1 KiB (0%)
Title : SDH
Language : English
Default : No
Forced : No





Our Cartoon President S01E04


Our Cartoon President S01E04


Our Cartoon President S01E04


Our Cartoon President S01E04


Our Cartoon President S01E04

All episodes