Featured TV Shows


Our Cartoon President S01E04

Posted By: Tavaz
720p (HD) / WEB-DL IMDb
Our Cartoon President S01E04

Our Cartoon President S01E04
WEB-DL | MKV | 1280x720 | English | H264 @ 1042 kbps | E-AC-3 @ 224 kbps | 27 min 18 s | 248 MiB
Subtitles: English
Genre: Animation, Comedy

A hilarious look into the Trump presidency, animation style. Starring two-dimensional avatars of Donald Trump and his merry band of insiders and family members, this cutting-edge comedy presents the truish adventures of Trump, his confidants and bon vivants through the eyes of an imaginary documentary crew.

1ccf788bb7d04910b04e8420791a38d6.mkv (247.7 MB)



General
Unique ID : 180226289642647430028723925187662124087 (0x8796521FDFBC7D06ADCA14F79D3F1437)
Complete name : ./1ccf788bb7d04910b04e8420791a38d6.mkv
Format : Matroska
Format version : Version 4 / Version 2
File size : 248 MiB
Duration : 27 min 18 s
Overall bit rate mode : Variable
Overall bit rate : 1 268 kb/s
Encoded date : UTC 2018-03-04 20:21:23
Writing application : mkvmerge v13.0.0 ('The Juggler') 64bit
Writing library : libebml v1.3.4 + libmatroska v1.4.5

Video
ID : 1
Format : AVC
Format/Info : Advanced Video Codec
Format profile : High@L3.1
Format settings : CABAC / 5 Ref Frames
Format settings, CABAC : Yes
Format settings, RefFrames : 5 frames
Codec ID : V_MPEG4/ISO/AVC
Duration : 27 min 18 s
Bit rate mode : Variable
Bit rate : 1 042 kb/s
Maximum bit rate : 4 500 kb/s
Width : 1 280 pixels
Height : 720 pixels
Display aspect ratio : 16:9
Frame rate mode : Constant
Frame rate : 23.976 (24000/1001) FPS
Color space : YUV
Chroma subsampling : 4:2:0
Bit depth : 8 bits
Scan type : Progressive
Bits/(Pixel*Frame) : 0.047
Stream size : 204 MiB (82%)
Default : Yes
Forced : No
Color range : Limited
Color primaries : BT.709
Transfer characteristics : BT.709
Matrix coefficients : BT.709

Audio
ID : 2
Format : E-AC-3
Format/Info : Enhanced Audio Coding 3
Format settings, Endianness : Big
Codec ID : A_EAC3
Duration : 27 min 18 s
Bit rate mode : Constant
Bit rate : 224 kb/s
Channel(s) : 2 channels
Channel positions : Front: L R
Sampling rate : 48.0 kHz
Frame rate : 187.500 FPS (256 SPF)
Compression mode : Lossy
Stream size : 43.7 MiB (18%)
Language : English
Service kind : Complete Main
Default : Yes
Forced : No

Text #1
ID : 3
Format : UTF-8
Codec ID : S_TEXT/UTF8
Codec ID/Info : UTF-8 Plain Text
Duration : 26 min 53 s
Bit rate : 119 b/s
Count of elements : 622
Stream size : 23.5 KiB (0%)
Language : English
Default : No
Forced : No

Text #2
ID : 4
Format : UTF-8
Codec ID : S_TEXT/UTF8
Codec ID/Info : UTF-8 Plain Text
Duration : 26 min 53 s
Bit rate : 122 b/s
Count of elements : 632
Stream size : 24.1 KiB (0%)
Title : SDH
Language : English
Default : No
Forced : No





Our Cartoon President S01E04


Our Cartoon President S01E04


Our Cartoon President S01E04


Our Cartoon President S01E04


Our Cartoon President S01E04

All episodes