Featured TV Shows


Our Cartoon President S01E08

Posted By: Tavaz
720p (HD) / WEB-DL IMDb
Our Cartoon President S01E08

Our Cartoon President S01E08
WEB-DL | MKV | 1280x720 | English | H264 @ 1186 kbps | E-AC-3 @ 224 kbps | 25 min 53 s | 262 MiB
Genre: Animation, Comedy

A hilarious look into the Trump presidency, animation style. Starring two-dimensional avatars of Donald Trump and his merry band of insiders and family members, this cutting-edge comedy presents the truish adventures of Trump, his confidants and bon vivants through the eyes of an imaginary documentary crew.

46764146f6b2427494a6d9b2c72d864a.mkv (261.5 MB)



General
Unique ID : 200139722737529275712035930812215283852 (0x9691822D972E9650888FCE11EF95508C)
Complete name : ./46764146f6b2427494a6d9b2c72d864a.mkv
Format : Matroska
Format version : Version 4 / Version 2
File size : 262 MiB
Duration : 25 min 53 s
Overall bit rate mode : Variable
Overall bit rate : 1 412 kb/s
Encoded date : UTC 2018-03-27 13:57:54
Writing application : mkvmerge v13.0.0 ('The Juggler') 64bit
Writing library : libebml v1.3.4 + libmatroska v1.4.5

Video
ID : 1
Format : AVC
Format/Info : Advanced Video Codec
Format profile : High@L3.1
Format settings : CABAC / 5 Ref Frames
Format settings, CABAC : Yes
Format settings, RefFrames : 5 frames
Codec ID : V_MPEG4/ISO/AVC
Duration : 25 min 53 s
Bit rate mode : Variable
Bit rate : 1 186 kb/s
Maximum bit rate : 4 500 kb/s
Width : 1 280 pixels
Height : 720 pixels
Display aspect ratio : 16:9
Frame rate mode : Constant
Frame rate : 23.976 (24000/1001) FPS
Color space : YUV
Chroma subsampling : 4:2:0
Bit depth : 8 bits
Scan type : Progressive
Bits/(Pixel*Frame) : 0.054
Stream size : 220 MiB (84%)
Default : Yes
Forced : No
Color range : Limited
Color primaries : BT.709
Transfer characteristics : BT.709
Matrix coefficients : BT.709

Audio
ID : 2
Format : E-AC-3
Format/Info : Enhanced Audio Coding 3
Format settings, Endianness : Big
Codec ID : A_EAC3
Duration : 25 min 53 s
Bit rate mode : Constant
Bit rate : 224 kb/s
Channel(s) : 2 channels
Channel positions : Front: L R
Sampling rate : 48.0 kHz
Frame rate : 187.500 FPS (256 SPF)
Compression mode : Lossy
Stream size : 41.5 MiB (16%)
Language : English
Service kind : Complete Main
Default : Yes
Forced : No





Our Cartoon President S01E08


Our Cartoon President S01E08


Our Cartoon President S01E08


Our Cartoon President S01E08


Our Cartoon President S01E08

All episodes