Featured TV Shows


Our Cartoon President S01E09

Posted By: Tavaz
1080p (FullHD) / WEB-DL IMDb
Our Cartoon President S01E09

Our Cartoon President S01E09
WEB-DL | MKV | 1920x1080 | English | H264 @ 2578 kbps | E-AC-3 @ 224 kbps | 25 min 22 s | 509 MiB
Subtitles: English
Genre: Animation, Comedy

A hilarious look into the Trump presidency, animation style. Starring two-dimensional avatars of Donald Trump and his merry band of insiders and family members, this cutting-edge comedy presents the truish adventures of Trump, his confidants and bon vivants through the eyes of an imaginary documentary crew.

ba28b33f85ca43ffb9ab0f2996d0d8e1.mkv (509.0 MB)



General
Unique ID : 254550838593836017304387325507870410239 (0xBF80B54F539027958B20093A887045FF)
Complete name : ./ba28b33f85ca43ffb9ab0f2996d0d8e1.mkv
Format : Matroska
Format version : Version 4 / Version 2
File size : 509 MiB
Duration : 25 min 22 s
Overall bit rate mode : Variable
Overall bit rate : 2 805 kb/s
Encoded date : UTC 2018-04-02 01:59:13
Writing application : mkvmerge v13.0.0 ('The Juggler') 64bit
Writing library : libebml v1.3.4 + libmatroska v1.4.5

Video
ID : 1
Format : AVC
Format/Info : Advanced Video Codec
Format profile : High@L4
Format settings : CABAC / 4 Ref Frames
Format settings, CABAC : Yes
Format settings, RefFrames : 4 frames
Codec ID : V_MPEG4/ISO/AVC
Duration : 25 min 22 s
Bit rate mode : Variable
Bit rate : 2 579 kb/s
Maximum bit rate : 15.0 Mb/s
Width : 1 920 pixels
Height : 1 080 pixels
Display aspect ratio : 16:9
Frame rate mode : Constant
Frame rate : 23.976 (24000/1001) FPS
Color space : YUV
Chroma subsampling : 4:2:0
Bit depth : 8 bits
Scan type : Progressive
Bits/(Pixel*Frame) : 0.052
Stream size : 468 MiB (92%)
Default : Yes
Forced : No
Color range : Limited
Color primaries : BT.709
Transfer characteristics : BT.709
Matrix coefficients : BT.709

Audio
ID : 2
Format : E-AC-3
Format/Info : Enhanced Audio Coding 3
Format settings, Endianness : Big
Codec ID : A_EAC3
Duration : 25 min 22 s
Bit rate mode : Constant
Bit rate : 224 kb/s
Channel(s) : 2 channels
Channel positions : Front: L R
Sampling rate : 48.0 kHz
Frame rate : 187.500 FPS (256 SPF)
Compression mode : Lossy
Stream size : 40.6 MiB (8%)
Language : English
Service kind : Complete Main
Default : Yes
Forced : No

Text #1
ID : 3
Format : UTF-8
Codec ID : S_TEXT/UTF8
Codec ID/Info : UTF-8 Plain Text
Duration : 24 min 58 s
Bit rate : 118 b/s
Count of elements : 619
Stream size : 21.7 KiB (0%)
Language : English
Default : No
Forced : No

Text #2
ID : 4
Format : UTF-8
Codec ID : S_TEXT/UTF8
Codec ID/Info : UTF-8 Plain Text
Duration : 24 min 58 s
Bit rate : 124 b/s
Count of elements : 637
Stream size : 22.7 KiB (0%)
Title : SDH
Language : English
Default : No
Forced : No





Our Cartoon President S01E09


Our Cartoon President S01E09


Our Cartoon President S01E09


Our Cartoon President S01E09


Our Cartoon President S01E09

All episodes