Featured TV Shows


Our Cartoon President S01E10

Posted By: Tavaz
1080p (FullHD) / WEBRip IMDb
Our Cartoon President S01E10

Our Cartoon President S01E10
WEBRip | MKV | 1920x1080 | English | H264 @ 2264 kbps | E-AC-3 @ 224 kbps | 25 min 12 s | 449 MiB
Genre: Animation, Comedy

A hilarious look into the Trump presidency, animation style. Starring two-dimensional avatars of Donald Trump and his merry band of insiders and family members, this cutting-edge comedy presents the truish adventures of Trump, his confidants and bon vivants through the eyes of an imaginary documentary crew.

Our.Cartoon.President.S01E10.First.Pitch.1080p.AMZN.WEB-DL.DDP2.0.H.264-monkee.mkv (449.0 MB)



General
Unique ID : 195228460199916015978387946517795751833 (0x92DFA23D694EE9F2A4A11CDA6478C799)
Complete name : ./Our.Cartoon.President.S01E10.First.Pitch.1080p.AMZN.WEB-DL.DDP2.0.H.264-monkee.mkv
Format : Matroska
Format version : Version 4 / Version 2
File size : 449 MiB
Duration : 25 min 12 s
Overall bit rate mode : Variable
Overall bit rate : 2 491 kb/s
Encoded date : UTC 2018-04-09 04:13:59
Writing application : mkvmerge v13.0.0 ('The Juggler') 64bit
Writing library : libebml v1.3.4 + libmatroska v1.4.5

Video
ID : 1
Format : AVC
Format/Info : Advanced Video Codec
Format profile : High@L4
Format settings : CABAC / 4 Ref Frames
Format settings, CABAC : Yes
Format settings, RefFrames : 4 frames
Codec ID : V_MPEG4/ISO/AVC
Duration : 25 min 12 s
Bit rate mode : Variable
Bit rate : 2 265 kb/s
Maximum bit rate : 15.0 Mb/s
Width : 1 920 pixels
Height : 1 080 pixels
Display aspect ratio : 16:9
Frame rate mode : Constant
Frame rate : 23.976 (24000/1001) FPS
Color space : YUV
Chroma subsampling : 4:2:0
Bit depth : 8 bits
Scan type : Progressive
Bits/(Pixel*Frame) : 0.046
Stream size : 408 MiB (91%)
Default : Yes
Forced : No
Color range : Limited
Color primaries : BT.709
Transfer characteristics : BT.709
Matrix coefficients : BT.709

Audio
ID : 2
Format : E-AC-3
Format/Info : Enhanced Audio Coding 3
Format settings, Endianness : Big
Codec ID : A_EAC3
Duration : 25 min 12 s
Bit rate mode : Constant
Bit rate : 224 kb/s
Channel(s) : 2 channels
Channel positions : Front: L R
Sampling rate : 48.0 kHz
Frame rate : 187.500 FPS (256 SPF)
Compression mode : Lossy
Stream size : 40.4 MiB (9%)
Language : English
Service kind : Complete Main
Default : Yes
Forced : No





Our Cartoon President S01E10


Our Cartoon President S01E10


Our Cartoon President S01E10


Our Cartoon President S01E10


Our Cartoon President S01E10

All episodes