Featured TV Shows


Our Cartoon President S01E11

Posted By: Tavaz
720p (HD) / WEB-DL IMDb
Our Cartoon President S01E11

Our Cartoon President S01E11
WEB-DL | MKV | 1280x720 | English | H264 @ 1041 kbps | E-AC-3 @ 224 kbps | 27 min 29 s | 254 MiB
Subtitles: English
Genre: Animation, Comedy

A hilarious look into the Trump presidency, animation style. Starring two-dimensional avatars of Donald Trump and his merry band of insiders and family members, this cutting-edge comedy presents the truish adventures of Trump, his confidants and bon vivants through the eyes of an imaginary documentary crew.

a506885cf00e48c3bd60ef79bc5cdd57.mkv (253.9 MB)



General
Unique ID : 193662225865552224348598158995651509663 (0x91B1FCECDACA4A04C8721FC79EF33D9F)
Complete name : ./a506885cf00e48c3bd60ef79bc5cdd57.mkv
Format : Matroska
Format version : Version 4 / Version 2
File size : 254 MiB
Duration : 27 min 29 s
Overall bit rate : 1 291 kb/s
Writing application : mkvmerge v21.0.0 ('Tardigrades Will Inherit The Earth') 64-bit
Writing library : libebml v1.3.5 + libmatroska v1.4.8

Video
ID : 1
Format : AVC
Format/Info : Advanced Video Codec
Format profile : High@L3.1
Format settings : CABAC / 5 Ref Frames
Format settings, CABAC : Yes
Format settings, RefFrames : 5 frames
Codec ID : V_MPEG4/ISO/AVC
Duration : 27 min 29 s
Bit rate : 1 041 kb/s
Width : 1 280 pixels
Height : 720 pixels
Display aspect ratio : 16:9
Frame rate mode : Constant
Frame rate : 23.976 (24000/1001) FPS
Color space : YUV
Chroma subsampling : 4:2:0
Bit depth : 8 bits
Scan type : Progressive
Bits/(Pixel*Frame) : 0.047
Stream size : 205 MiB (81%)
Default : Yes
Forced : No
Color range : Limited
Color primaries : BT.709
Transfer characteristics : BT.709
Matrix coefficients : BT.709
Statistics Tags Issue : mkvmerge v21.0.0 ('Tardigrades Will Inherit The Earth') 64-bit 2018-07-16 17:55:30 / mkvmerge v21.0.0 ('Tardigrades Will Inherit The Earth') 64-bit
FromStats_BitRate : 1064872
FromStats_Duration : 00:27:29.857000000
FromStats_FrameCount : 39557
FromStats_StreamSize : 219610963

Audio
ID : 2
Format : E-AC-3
Format/Info : Enhanced Audio Coding 3
Format settings, Endianness : Big
Codec ID : A_EAC3
Duration : 27 min 29 s
Bit rate mode : Constant
Bit rate : 224 kb/s
Channel(s) : 2 channels
Channel positions : Front: L R
Sampling rate : 48.0 kHz
Frame rate : 187.500 FPS (256 SPF)
Compression mode : Lossy
Delay relative to video : 15 ms
Stream size : 44.1 MiB (17%)
Language : English
Service kind : Complete Main
Default : Yes
Forced : No
Statistics Tags Issue : mkvmerge v21.0.0 ('Tardigrades Will Inherit The Earth') 64-bit 2018-07-16 17:55:30 / mkvmerge v21.0.0 ('Tardigrades Will Inherit The Earth') 64-bit
FromStats_BitRate : 224000
FromStats_Duration : 00:27:29.888000000
FromStats_FrameCount : 51559
FromStats_StreamSize : 46196864

Text #1
ID : 3
Format : UTF-8
Codec ID : S_TEXT/UTF8
Codec ID/Info : UTF-8 Plain Text
Language : English
Default : No
Forced : No
Statistics Tags Issue : mkvmerge v21.0.0 ('Tardigrades Will Inherit The Earth') 64-bit 2018-07-16 17:55:30 / mkvmerge v21.0.0 ('Tardigrades Will Inherit The Earth') 64-bit
FromStats_BitRate : 119
FromStats_Duration : 00:27:04.625000000
FromStats_FrameCount : 655
FromStats_StreamSize : 24250

Text #2
ID : 4
Format : UTF-8
Codec ID : S_TEXT/UTF8
Codec ID/Info : UTF-8 Plain Text
Title : SDH
Language : English
Default : No
Forced : No
Statistics Tags Issue : mkvmerge v21.0.0 ('Tardigrades Will Inherit The Earth') 64-bit 2018-07-16 17:55:30 / mkvmerge v21.0.0 ('Tardigrades Will Inherit The Earth') 64-bit
FromStats_BitRate : 123
FromStats_Duration : 00:27:04.625000000
FromStats_FrameCount : 674
FromStats_StreamSize : 25171





Our Cartoon President S01E11


Our Cartoon President S01E11


Our Cartoon President S01E11


Our Cartoon President S01E11


Our Cartoon President S01E11

All episodes