Featured TV Shows


Our Cartoon President S01E13

Posted By: Tavaz
1080p (FullHD) / WEB-DL IMDb
Our Cartoon President S01E13

Our Cartoon President S01E13
WEB-DL | MKV | 1920x1080 | English | H264 @ 2933 kbps | E-AC-3 @ 224 kbps | 24 min 59 s | 576 MiB
Subtitles: English
Genre: Animation, Comedy

A hilarious look into the Trump presidency, animation style. Starring two-dimensional avatars of Donald Trump and his merry band of insiders and family members, this cutting-edge comedy presents the truish adventures of Trump, his confidants and bon vivants through the eyes of an imaginary documentary crew.

34da5b62f9384e46b6e66a919333d0cc.mkv (575.9 MB)



General
Complete name : ./34da5b62f9384e46b6e66a919333d0cc.mkv
Format : Matroska
Format version : Version 4 / Version 2
File size : 576 MiB
Duration : 24 min 59 s
Overall bit rate : 3 221 kb/s
Writing application : mkvmerge v21.0.0 ('Tardigrades Will Inherit The Earth') 64-bit
Writing library : libebml v1.3.5 + libmatroska v1.4.8

Video
ID : 1
Format : AVC
Format/Info : Advanced Video Codec
Format profile : High@L4
Format settings : CABAC / 4 Ref Frames
Format settings, CABAC : Yes
Format settings, RefFrames : 4 frames
Codec ID : V_MPEG4/ISO/AVC
Duration : 24 min 59 s
Bit rate : 2 933 kb/s
Width : 1 920 pixels
Height : 1 080 pixels
Display aspect ratio : 16:9
Frame rate mode : Constant
Frame rate : 23.976 (24000/1001) FPS
Color space : YUV
Chroma subsampling : 4:2:0
Bit depth : 8 bits
Scan type : Progressive
Bits/(Pixel*Frame) : 0.059
Stream size : 524 MiB (91%)
Default : Yes
Forced : No
Color range : Limited
Color primaries : BT.709
Transfer characteristics : BT.709
Matrix coefficients : BT.709
Statistics Tags Issue : mkvmerge v21.0.0 ('Tardigrades Will Inherit The Earth') 64-bit 2018-07-30 03:57:04 / mkvmerge v21.0.0 ('Tardigrades Will Inherit The Earth') 64-bit
FromStats_BitRate : 2995287
FromStats_Duration : 00:24:59.498000000
FromStats_FrameCount : 35952
FromStats_StreamSize : 561428507

Audio
ID : 2
Format : E-AC-3
Format/Info : Enhanced Audio Coding 3
Format settings, Endianness : Big
Codec ID : A_EAC3
Duration : 24 min 59 s
Bit rate mode : Constant
Bit rate : 224 kb/s
Channel(s) : 2 channels
Channel positions : Front: L R
Sampling rate : 48.0 kHz
Frame rate : 187.500 FPS (256 SPF)
Compression mode : Lossy
Delay relative to video : 8 ms
Stream size : 40.0 MiB (7%)
Language : English
Service kind : Complete Main
Default : Yes
Forced : No
Statistics Tags Issue : mkvmerge v21.0.0 ('Tardigrades Will Inherit The Earth') 64-bit 2018-07-30 03:57:04 / mkvmerge v21.0.0 ('Tardigrades Will Inherit The Earth') 64-bit
FromStats_BitRate : 224000
FromStats_Duration : 00:24:59.552000000
FromStats_FrameCount : 46861
FromStats_StreamSize : 41987456

Text #1
ID : 3
Format : UTF-8
Codec ID : S_TEXT/UTF8
Codec ID/Info : UTF-8 Plain Text
Language : English
Default : No
Forced : No
Statistics Tags Issue : mkvmerge v21.0.0 ('Tardigrades Will Inherit The Earth') 64-bit 2018-07-30 03:57:04 / mkvmerge v21.0.0 ('Tardigrades Will Inherit The Earth') 64-bit
FromStats_BitRate : 116
FromStats_Duration : 00:24:38.917000000
FromStats_FrameCount : 604
FromStats_StreamSize : 21548

Text #2
ID : 4
Format : UTF-8
Codec ID : S_TEXT/UTF8
Codec ID/Info : UTF-8 Plain Text
Title : SDH
Language : English
Default : No
Forced : No
Statistics Tags Issue : mkvmerge v21.0.0 ('Tardigrades Will Inherit The Earth') 64-bit 2018-07-30 03:57:04 / mkvmerge v21.0.0 ('Tardigrades Will Inherit The Earth') 64-bit
FromStats_BitRate : 122
FromStats_Duration : 00:24:38.917000000
FromStats_FrameCount : 615
FromStats_StreamSize : 22564





Our Cartoon President S01E13


Our Cartoon President S01E13


Our Cartoon President S01E13


Our Cartoon President S01E13


Our Cartoon President S01E13

All episodes