Featured TV Shows


Our Cartoon President S01E14

Posted By: Tavaz
1080p (FullHD) / WEB-DL IMDb
Our Cartoon President S01E14

Our Cartoon President S01E14
WEB-DL | MKV | 1920x1080 | English | H264 @ 3160 kbps | E-AC-3 @ 224 kbps | 26 min 12 s | 647 MiB
Subtitles: English
Genre: Animation, Comedy

A hilarious look into the Trump presidency, animation style. Starring two-dimensional avatars of Donald Trump and his merry band of insiders and family members, this cutting-edge comedy presents the truish adventures of Trump, his confidants and bon vivants through the eyes of an imaginary documentary crew.

d49d21117abd400f8b67c3dcc08e6421.mkv (647.2 MB)



General
Complete name : ./d49d21117abd400f8b67c3dcc08e6421.mkv
Format : Matroska
Format version : Version 4 / Version 2
File size : 647 MiB
Duration : 26 min 12 s
Overall bit rate : 3 454 kb/s
Writing application : mkvmerge v21.0.0 ('Tardigrades Will Inherit The Earth') 64-bit
Writing library : libebml v1.3.5 + libmatroska v1.4.8

Video
ID : 1
Format : AVC
Format/Info : Advanced Video Codec
Format profile : High@L4
Format settings : CABAC / 4 Ref Frames
Format settings, CABAC : Yes
Format settings, RefFrames : 4 frames
Codec ID : V_MPEG4/ISO/AVC
Duration : 26 min 12 s
Bit rate : 3 161 kb/s
Width : 1 920 pixels
Height : 1 080 pixels
Display aspect ratio : 16:9
Frame rate mode : Constant
Frame rate : 23.976 (24000/1001) FPS
Color space : YUV
Chroma subsampling : 4:2:0
Bit depth : 8 bits
Scan type : Progressive
Bits/(Pixel*Frame) : 0.064
Stream size : 592 MiB (92%)
Default : Yes
Forced : No
Color range : Limited
Color primaries : BT.709
Transfer characteristics : BT.709
Matrix coefficients : BT.709
Statistics Tags Issue : mkvmerge v21.0.0 ('Tardigrades Will Inherit The Earth') 64-bit 2018-08-06 02:42:56 / mkvmerge v21.0.0 ('Tardigrades Will Inherit The Earth') 64-bit
FromStats_BitRate : 3227351
FromStats_Duration : 00:26:12.029000000
FromStats_FrameCount : 37691
FromStats_StreamSize : 634186215

Audio
ID : 2
Format : E-AC-3
Format/Info : Enhanced Audio Coding 3
Format settings, Endianness : Big
Codec ID : A_EAC3
Duration : 26 min 12 s
Bit rate mode : Constant
Bit rate : 224 kb/s
Channel(s) : 2 channels
Channel positions : Front: L R
Sampling rate : 48.0 kHz
Frame rate : 187.500 FPS (256 SPF)
Compression mode : Lossy
Delay relative to video : 3 ms
Stream size : 42.0 MiB (6%)
Language : English
Service kind : Complete Main
Default : Yes
Forced : No
Statistics Tags Issue : mkvmerge v21.0.0 ('Tardigrades Will Inherit The Earth') 64-bit 2018-08-06 02:42:56 / mkvmerge v21.0.0 ('Tardigrades Will Inherit The Earth') 64-bit
FromStats_BitRate : 224000
FromStats_Duration : 00:26:12.064000000
FromStats_FrameCount : 49127
FromStats_StreamSize : 44017792

Text #1
ID : 3
Format : UTF-8
Codec ID : S_TEXT/UTF8
Codec ID/Info : UTF-8 Plain Text
Language : English
Default : No
Forced : No
Statistics Tags Issue : mkvmerge v21.0.0 ('Tardigrades Will Inherit The Earth') 64-bit 2018-08-06 02:42:56 / mkvmerge v21.0.0 ('Tardigrades Will Inherit The Earth') 64-bit
FromStats_BitRate : 120
FromStats_Duration : 00:25:55.375000000
FromStats_FrameCount : 650
FromStats_StreamSize : 23403

Text #2
ID : 4
Format : UTF-8
Codec ID : S_TEXT/UTF8
Codec ID/Info : UTF-8 Plain Text
Title : SDH
Language : English
Default : No
Forced : No
Statistics Tags Issue : mkvmerge v21.0.0 ('Tardigrades Will Inherit The Earth') 64-bit 2018-08-06 02:42:56 / mkvmerge v21.0.0 ('Tardigrades Will Inherit The Earth') 64-bit
FromStats_BitRate : 127
FromStats_Duration : 00:25:55.375000000
FromStats_FrameCount : 682
FromStats_StreamSize : 24708





Our Cartoon President S01E14


Our Cartoon President S01E14


Our Cartoon President S01E14


Our Cartoon President S01E14


Our Cartoon President S01E14

All episodes