Featured TV Shows


Our Cartoon President S02E02

Posted By: Tavaz
720p (HD) / WEB-DL IMDb
Our Cartoon President S02E02

Our Cartoon President S02E02
WEB-DL | MKV | 1280x720 | English | H264 @ 1586 kbps | E-AC-3 @ 224 kbps | 29 min 4 s | 377 MiB
Subtitles: English
Genre: Animation, Comedy


A hilarious look into the Trump presidency, animation style. Starring two-dimensional avatars of Donald Trump and his merry band of insiders and family members, this cutting-edge comedy presents the truish adventures of Trump, his confidants and bon vivants through the eyes of an imaginary documentary crew.

e8b8fc85887047ecbfa63015632903a0.mkv (377.2 MB)



General
Unique ID : 200458721591336986817250279094731053990 (0x96CEF2092F0EF69EF67FC4988A8A9BA6)
Complete name : ./e8b8fc85887047ecbfa63015632903a0.mkv
Format : Matroska
Format version : Version 4 / Version 2
File size : 377 MiB
Duration : 29 min 4 s
Overall bit rate : 1 813 kb/s
Writing application : mkvmerge v32.0.0 ('Astral Progressions') 64-bit
Writing library : libebml v1.3.7 + libmatroska v1.5.0

Video
ID : 1
Format : AVC
Format/Info : Advanced Video Codec
Format profile : High@L3.1
Format settings : CABAC / 4 Ref Frames
Format settings, CABAC : Yes
Format settings, RefFrames : 4 frames
Codec ID : V_MPEG4/ISO/AVC
Duration : 29 min 4 s
Bit rate mode : Constant
Bit rate : 1 587 kb/s
Nominal bit rate : 6 000 kb/s
Width : 1 280 pixels
Height : 720 pixels
Display aspect ratio : 16:9
Frame rate mode : Constant
Frame rate : 23.976 (24000/1001) FPS
Color space : YUV
Chroma subsampling : 4:2:0
Bit depth : 8 bits
Scan type : Progressive
Bits/(Pixel*Frame) : 0.072
Stream size : 330 MiB (88%)
Default : Yes
Forced : No
Color range : Limited
Color primaries : BT.709
Transfer characteristics : BT.709
Matrix coefficients : BT.709

Audio
ID : 2
Format : E-AC-3
Format/Info : Enhanced Audio Coding 3
Format settings, Endianness : Big
Codec ID : A_EAC3
Duration : 29 min 4 s
Bit rate mode : Constant
Bit rate : 224 kb/s
Channel(s) : 2 channels
Channel positions : Front: L R
Sampling rate : 48.0 kHz
Frame rate : 187.500 FPS (256 SPF)
Compression mode : Lossy
Delay relative to video : 18 ms
Stream size : 46.6 MiB (12%)
Language : English
Service kind : Complete Main
Default : Yes
Forced : No

Text #1
ID : 3
Format : UTF-8
Codec ID : S_TEXT/UTF8
Codec ID/Info : UTF-8 Plain Text
Duration : 28 min 38 s
Bit rate : 116 b/s
Count of elements : 657
Stream size : 24.5 KiB (0%)
Title : English
Language : English
Default : No
Forced : No

Text #2
ID : 4
Format : UTF-8
Codec ID : S_TEXT/UTF8
Codec ID/Info : UTF-8 Plain Text
Duration : 28 min 48 s
Bit rate : 121 b/s
Count of elements : 695
Stream size : 25.7 KiB (0%)
Title : English SDH
Language : English
Default : No
Forced : No





Our Cartoon President S02E02


Our Cartoon President S02E02


Our Cartoon President S02E02


Our Cartoon President S02E02


Our Cartoon President S02E02

All episodes