Featured TV Shows


Our Cartoon President S02E03

Posted By: Tavaz
1080p (FullHD) / WEBRip IMDb
Our Cartoon President S02E03

Our Cartoon President S02E03
WEBRip | MKV | 1920x1080 | English | H264 @ 4102 kbps | E-AC-3 @ 224 kbps | 28 min 12 s | 873 MiB
Subtitles: English
Genre: Animation, Comedy


A hilarious look into the Trump presidency, animation style. Starring two-dimensional avatars of Donald Trump and his merry band of insiders and family members, this cutting-edge comedy presents the truish adventures of Trump, his confidants and bon vivants through the eyes of an imaginary documentary crew.

our.cartoon.president.s02e03.1080p.web.h264-tbs.mkv (873.0 MB)



General
Unique ID : 167805017027776754981788068438125685270 (0x7E3E121A216B9D96E704447896A1AA16)
Complete name : ./our.cartoon.president.s02e03.1080p.web.h264-tbs.mkv
Format : Matroska
Format version : Version 4 / Version 2
File size : 873 MiB
Duration : 28 min 12 s
Overall bit rate : 4 328 kb/s
Encoded date : UTC 2019-05-27 00:39:49
Writing application : mkvmerge v33.1.0 ('Primrose') 64-bit
Writing library : libebml v1.3.7 + libmatroska v1.5.0

Video
ID : 1
Format : AVC
Format/Info : Advanced Video Codec
Format profile : High@L4
Format settings : CABAC / 4 Ref Frames
Format settings, CABAC : Yes
Format settings, RefFrames : 4 frames
Codec ID : V_MPEG4/ISO/AVC
Duration : 28 min 12 s
Bit rate mode : Constant
Bit rate : 4 102 kb/s
Nominal bit rate : 10 000 kb/s
Width : 1 920 pixels
Height : 1 080 pixels
Display aspect ratio : 16:9
Frame rate mode : Constant
Frame rate : 23.976 (24000/1001) FPS
Color space : YUV
Chroma subsampling : 4:2:0
Bit depth : 8 bits
Scan type : Progressive
Bits/(Pixel*Frame) : 0.083
Stream size : 827 MiB (95%)
Language : English
Default : Yes
Forced : No
Color range : Limited
Color primaries : BT.709
Transfer characteristics : BT.709
Matrix coefficients : BT.709

Audio
ID : 2
Format : E-AC-3
Format/Info : Enhanced Audio Coding 3
Format settings, Endianness : Big
Codec ID : A_EAC3
Duration : 28 min 12 s
Bit rate mode : Constant
Bit rate : 224 kb/s
Channel(s) : 2 channels
Channel positions : Front: L R
Sampling rate : 48.0 kHz
Frame rate : 187.500 FPS (256 SPF)
Compression mode : Lossy
Delay relative to video : 18 ms
Stream size : 45.2 MiB (5%)
Language : English
Service kind : Complete Main
Default : Yes
Forced : No

Text
ID : 3
Format : UTF-8
Codec ID : S_TEXT/UTF8
Codec ID/Info : UTF-8 Plain Text
Duration : 27 min 56 s
Bit rate : 127 b/s
Count of elements : 714
Stream size : 26.1 KiB (0%)
Language : English
Default : No
Forced : No





Our Cartoon President S02E03


Our Cartoon President S02E03


Our Cartoon President S02E03


Our Cartoon President S02E03


Our Cartoon President S02E03

All episodes