Featured TV Shows


Our Cartoon President S02E05

Posted By: Tavaz
720p (HD) / WEBRip IMDb
Our Cartoon President S02E05

Our Cartoon President S02E05
WEBRip | MKV | 1280x720 | English | H264 @ 2067 kbps | E-AC-3 @ 224 kbps | 25 min 56 s | 426 MiB
Subtitles: English
Genre: Animation, Comedy


A hilarious look into the Trump presidency, animation style. Starring two-dimensional avatars of Donald Trump and his merry band of insiders and family members, this cutting-edge comedy presents the truish adventures of Trump, his confidants and bon vivants through the eyes of an imaginary documentary crew.

Our.Cartoon.President.S02E05.Mental.Fitness.720p.AMZN.WEB-DL.DDP2.0.H.264-monkee.mkv (425.5 MB)



General
Unique ID : 69035093544058721185786965862685178109 (0x33EFACE629B60F292588FE6F099978FD)
Complete name : ./Our.Cartoon.President.S02E05.Mental.Fitness.720p.AMZN.WEB-DL.DDP2.0.H.264-monkee.mkv
Format : Matroska
Format version : Version 4 / Version 2
File size : 426 MiB
Duration : 25 min 56 s
Overall bit rate : 2 294 kb/s
Writing application : mkvmerge v32.0.0 ('Astral Progressions') 64-bit
Writing library : libebml v1.3.7 + libmatroska v1.5.0

Video
ID : 1
Format : AVC
Format/Info : Advanced Video Codec
Format profile : High@L3.1
Format settings : CABAC / 4 Ref Frames
Format settings, CABAC : Yes
Format settings, RefFrames : 4 frames
Codec ID : V_MPEG4/ISO/AVC
Duration : 25 min 56 s
Bit rate mode : Constant
Bit rate : 2 067 kb/s
Nominal bit rate : 6 000 kb/s
Width : 1 280 pixels
Height : 720 pixels
Display aspect ratio : 16:9
Frame rate mode : Constant
Frame rate : 23.976 (24000/1001) FPS
Color space : YUV
Chroma subsampling : 4:2:0
Bit depth : 8 bits
Scan type : Progressive
Bits/(Pixel*Frame) : 0.094
Stream size : 384 MiB (90%)
Default : Yes
Forced : No
Color range : Limited
Color primaries : BT.709
Transfer characteristics : BT.709
Matrix coefficients : BT.709

Audio
ID : 2
Format : E-AC-3
Format/Info : Enhanced Audio Coding 3
Format settings, Endianness : Big
Codec ID : A_EAC3
Duration : 25 min 56 s
Bit rate mode : Constant
Bit rate : 224 kb/s
Channel(s) : 2 channels
Channel positions : Front: L R
Sampling rate : 48.0 kHz
Frame rate : 187.500 FPS (256 SPF)
Compression mode : Lossy
Delay relative to video : 18 ms
Stream size : 41.6 MiB (10%)
Language : English
Service kind : Complete Main
Default : Yes
Forced : No

Text #1
ID : 3
Format : UTF-8
Codec ID : S_TEXT/UTF8
Codec ID/Info : UTF-8 Plain Text
Duration : 25 min 31 s
Bit rate : 120 b/s
Count of elements : 628
Stream size : 22.5 KiB (0%)
Title : English
Language : English
Default : No
Forced : No

Text #2
ID : 4
Format : UTF-8
Codec ID : S_TEXT/UTF8
Codec ID/Info : UTF-8 Plain Text
Duration : 25 min 31 s
Bit rate : 126 b/s
Count of elements : 672
Stream size : 23.6 KiB (0%)
Title : English SDH
Language : English
Default : No
Forced : No





Our Cartoon President S02E05


Our Cartoon President S02E05


Our Cartoon President S02E05


Our Cartoon President S02E05


Our Cartoon President S02E05

All episodes