Featured TV Shows


Our Cartoon President S02E06

Posted By: Tavaz
720p (HD) / WEB-DL IMDb
Our Cartoon President S02E06

Our Cartoon President S02E06
WEB-DL | MKV | 1280x720 | English | H264 @ 2340 kbps | E-AC-3 @ 224 kbps | 27 min 47 s | 510 MiB
Subtitles: English
Genre: Animation, Comedy


A hilarious look into the Trump presidency, animation style. Starring two-dimensional avatars of Donald Trump and his merry band of insiders and family members, this cutting-edge comedy presents the truish adventures of Trump, his confidants and bon vivants through the eyes of an imaginary documentary crew.

b22b769ce43447abbb8624aa2efbfb46.mkv (510.2 MB)



General
Unique ID : 33111414489384157116603161385128242479 (0x18E906C68411FBAFF4084BD9103D2D2F)
Complete name : ./b22b769ce43447abbb8624aa2efbfb46.mkv
Format : Matroska
Format version : Version 4 / Version 2
File size : 510 MiB
Duration : 27 min 47 s
Overall bit rate : 2 567 kb/s
Writing application : mkvmerge v32.0.0 ('Astral Progressions') 64-bit
Writing library : libebml v1.3.7 + libmatroska v1.5.0

Video
ID : 1
Format : AVC
Format/Info : Advanced Video Codec
Format profile : High@L3.1
Format settings : CABAC / 4 Ref Frames
Format settings, CABAC : Yes
Format settings, RefFrames : 4 frames
Codec ID : V_MPEG4/ISO/AVC
Duration : 27 min 47 s
Bit rate mode : Constant
Bit rate : 2 341 kb/s
Nominal bit rate : 6 000 kb/s
Width : 1 280 pixels
Height : 720 pixels
Display aspect ratio : 16:9
Frame rate mode : Constant
Frame rate : 23.976 (24000/1001) FPS
Color space : YUV
Chroma subsampling : 4:2:0
Bit depth : 8 bits
Scan type : Progressive
Bits/(Pixel*Frame) : 0.106
Stream size : 465 MiB (91%)
Default : Yes
Forced : No
Color range : Limited
Color primaries : BT.709
Transfer characteristics : BT.709
Matrix coefficients : BT.709

Audio
ID : 2
Format : E-AC-3
Format/Info : Enhanced Audio Coding 3
Format settings, Endianness : Big
Codec ID : A_EAC3
Duration : 27 min 47 s
Bit rate mode : Constant
Bit rate : 224 kb/s
Channel(s) : 2 channels
Channel positions : Front: L R
Sampling rate : 48.0 kHz
Frame rate : 187.500 FPS (256 SPF)
Compression mode : Lossy
Delay relative to video : 18 ms
Stream size : 44.5 MiB (9%)
Language : English
Service kind : Complete Main
Default : Yes
Forced : No

Text
ID : 3
Format : UTF-8
Codec ID : S_TEXT/UTF8
Codec ID/Info : UTF-8 Plain Text
Duration : 27 min 30 s
Bit rate : 124 b/s
Count of elements : 697
Stream size : 25.2 KiB (0%)
Title : SDH
Language : English
Default : No
Forced : No





Our Cartoon President S02E06


Our Cartoon President S02E06


Our Cartoon President S02E06


Our Cartoon President S02E06


Our Cartoon President S02E06

All episodes