Featured TV Shows


Our Cartoon President S02E07

Posted By: Tavaz
720p (HD) / WEB-DL IMDb
Our Cartoon President S02E07

Our Cartoon President S02E07
WEB-DL | MKV | 1280x720 | English | H264 @ 2210 kbps | E-AC-3 @ 224 kbps | 26 min 34 s | 463 MiB
Subtitles: English
Genre: Animation, Comedy


A hilarious look into the Trump presidency, animation style. Starring two-dimensional avatars of Donald Trump and his merry band of insiders and family members, this cutting-edge comedy presents the truish adventures of Trump, his confidants and bon vivants through the eyes of an imaginary documentary crew.

56a9bac4e7c94e9f99a7eb1753792a51.mkv (463.2 MB)



General
Unique ID : 132099735083291638822738299277139732969 (0x63617BC98E61DBADC29081CD30AF69E9)
Complete name : ./56a9bac4e7c94e9f99a7eb1753792a51.mkv
Format : Matroska
Format version : Version 4 / Version 2
File size : 463 MiB
Duration : 26 min 34 s
Overall bit rate : 2 436 kb/s
Writing application : mkvmerge v32.0.0 ('Astral Progressions') 64-bit
Writing library : libebml v1.3.7 + libmatroska v1.5.0

Video
ID : 1
Format : AVC
Format/Info : Advanced Video Codec
Format profile : High@L3.1
Format settings : CABAC / 4 Ref Frames
Format settings, CABAC : Yes
Format settings, RefFrames : 4 frames
Codec ID : V_MPEG4/ISO/AVC
Duration : 26 min 34 s
Bit rate mode : Constant
Bit rate : 2 210 kb/s
Nominal bit rate : 6 000 kb/s
Width : 1 280 pixels
Height : 720 pixels
Display aspect ratio : 16:9
Frame rate mode : Constant
Frame rate : 23.976 (24000/1001) FPS
Color space : YUV
Chroma subsampling : 4:2:0
Bit depth : 8 bits
Scan type : Progressive
Bits/(Pixel*Frame) : 0.100
Stream size : 420 MiB (91%)
Default : Yes
Forced : No
Color range : Limited
Color primaries : BT.709
Transfer characteristics : BT.709
Matrix coefficients : BT.709

Audio
ID : 2
Format : E-AC-3
Format/Info : Enhanced Audio Coding 3
Format settings, Endianness : Big
Codec ID : A_EAC3
Duration : 26 min 34 s
Bit rate mode : Constant
Bit rate : 224 kb/s
Channel(s) : 2 channels
Channel positions : Front: L R
Sampling rate : 48.0 kHz
Frame rate : 187.500 FPS (256 SPF)
Compression mode : Lossy
Delay relative to video : 18 ms
Stream size : 42.6 MiB (9%)
Language : English
Service kind : Complete Main
Default : Yes
Forced : No

Text #1
ID : 3
Format : UTF-8
Codec ID : S_TEXT/UTF8
Codec ID/Info : UTF-8 Plain Text
Duration : 26 min 10 s
Bit rate : 115 b/s
Count of elements : 608
Stream size : 22.1 KiB (0%)
Language : English
Default : No
Forced : No

Text #2
ID : 4
Format : UTF-8
Codec ID : S_TEXT/UTF8
Codec ID/Info : UTF-8 Plain Text
Duration : 26 min 18 s
Bit rate : 121 b/s
Count of elements : 654
Stream size : 23.4 KiB (0%)
Title : SDH
Language : English
Default : No
Forced : No





Our Cartoon President S02E07


Our Cartoon President S02E07


Our Cartoon President S02E07


Our Cartoon President S02E07


Our Cartoon President S02E07

All episodes