Featured TV Shows


Our Cartoon President S02E08

Posted By: Tavaz
720p (HD) / WEBRip IMDb
Our Cartoon President S02E08

Our Cartoon President S02E08
WEBRip | MKV | 1280x720 | English | H264 @ 1409 kbps | AAC @ 132 kbps | 29 min 40 s | 328 MiB
Subtitles: English
Genre: Animation, Comedy


A hilarious look into the Trump presidency, animation style. Starring two-dimensional avatars of Donald Trump and his merry band of insiders and family members, this cutting-edge comedy presents the truish adventures of Trump, his confidants and bon vivants through the eyes of an imaginary documentary crew.

Our.Cartoon.President.S02E08.720p.WEBRip.x264-eSc.mkv (327.5 MB)



General
Unique ID : 316474776297881804133757818011172952466 (0xEE16D32828D0465543091702AECF5992)
Complete name : ./Our.Cartoon.President.S02E08.720p.WEBRip.x264-eSc.mkv
Format : Matroska
Format version : Version 4 / Version 2
File size : 328 MiB
Duration : 29 min 40 s
Overall bit rate : 1 543 kb/s
Encoded date : UTC 2019-07-01 18:50:35
Writing application : mkvmerge v22.0.0 ('At The End Of The World') 64-bit
Writing library : libebml v1.3.5 + libmatroska v1.4.8

Video
ID : 1
Format : AVC
Format/Info : Advanced Video Codec
Format profile : High@L3.1
Format settings : CABAC / 4 Ref Frames
Format settings, CABAC : Yes
Format settings, RefFrames : 4 frames
Codec ID : V_MPEG4/ISO/AVC
Duration : 29 min 40 s
Bit rate : 1 410 kb/s
Width : 1 280 pixels
Height : 720 pixels
Display aspect ratio : 16:9
Frame rate mode : Constant
Frame rate : 23.976 (24000/1001) FPS
Color space : YUV
Chroma subsampling : 4:2:0
Bit depth : 8 bits
Scan type : Progressive
Bits/(Pixel*Frame) : 0.064
Stream size : 299 MiB (91%)
Writing library : x264 core 157 r2969 d4099dd
Encoding settings : cabac=1 / ref=3 / deblock=1:0:0 / analyse=0x3:0x113 / me=hex / subme=7 / psy=1 / psy_rd=1.00:0.00 / mixed_ref=1 / me_range=16 / chroma_me=1 / trellis=1 / 8x8dct=1 / cqm=0 / deadzone=21,11 / fast_pskip=1 / chroma_qp_offset=-2 / threads=12 / lookahead_threads=2 / sliced_threads=0 / nr=0 / decimate=1 / interlaced=0 / bluray_compat=0 / constrained_intra=0 / bframes=3 / b_pyramid=2 / b_adapt=1 / b_bias=0 / direct=1 / weightb=1 / open_gop=0 / weightp=2 / keyint=250 / keyint_min=23 / scenecut=40 / intra_refresh=0 / rc_lookahead=40 / rc=crf / mbtree=1 / crf=18.0 / qcomp=0.60 / qpmin=0 / qpmax=69 / qpstep=4 / ip_ratio=1.40 / aq=1:1.00
Default : Yes
Forced : No

Audio
ID : 2
Format : AAC
Format/Info : Advanced Audio Codec
Format profile : LC
Codec ID : A_AAC-2
Duration : 29 min 40 s
Bit rate : 132 kb/s
Channel(s) : 2 channels
Channel positions : Front: L R
Sampling rate : 48.0 kHz
Frame rate : 46.875 FPS (1024 SPF)
Compression mode : Lossy
Delay relative to video : 17 ms
Stream size : 27.8 MiB (8%)
Language : English
Default : Yes
Forced : No

Text
ID : 3
Format : UTF-8
Codec ID : S_TEXT/UTF8
Codec ID/Info : UTF-8 Plain Text
Duration : 29 min 23 s
Bit rate : 161 b/s
Count of elements : 795
Stream size : 34.7 KiB (0%)
Language : English
Default : Yes
Forced : No





Our Cartoon President S02E08


Our Cartoon President S02E08


Our Cartoon President S02E08


Our Cartoon President S02E08


Our Cartoon President S02E08

All episodes