Featured TV Shows


Our Cartoon President S02E09

Posted By: Tavaz
720p (HD) / WEBRip IMDb
Our Cartoon President S02E09

Our Cartoon President S02E09
WEBRip | MKV | 1280x720 | English | H264 @ 1184 kbps | E-AC-3 @ 224 kbps | 28 min 2 s | 283 MiB
Subtitles: English
Genre: Animation, Comedy


A hilarious look into the Trump presidency, animation style. Starring two-dimensional avatars of Donald Trump and his merry band of insiders and family members, this cutting-edge comedy presents the truish adventures of Trump, his confidants and bon vivants through the eyes of an imaginary documentary crew.

our.cartoon.president.s02e09.720p.web.h264-convoy.mkv (282.8 MB)



General
Unique ID : 332426550539000255779341826594363029543 (0xFA1706593E3C3E66A677632712763827)
Complete name : ./our.cartoon.president.s02e09.720p.web.h264-convoy.mkv
Format : Matroska
Format version : Version 4 / Version 2
File size : 283 MiB
Duration : 28 min 2 s
Overall bit rate : 1 410 kb/s
Movie name : Our.Cartoon.President.S02E09.720p.WEB.h264-CONVOY
Encoded date : UTC 2019-07-08 01:35:31
Writing application : mkvmerge v24.0.0 ('Beyond The Pale') 64-bit
Writing library : libebml v1.3.6 + libmatroska v1.4.9

Video
ID : 1
Format : AVC
Format/Info : Advanced Video Codec
Format profile : High@L3.1
Format settings : CABAC / 5 Ref Frames
Format settings, CABAC : Yes
Format settings, RefFrames : 5 frames
Codec ID : V_MPEG4/ISO/AVC
Duration : 28 min 2 s
Bit rate : 1 185 kb/s
Width : 1 280 pixels
Height : 720 pixels
Display aspect ratio : 16:9
Frame rate mode : Constant
Frame rate : 23.976 (24000/1001) FPS
Color space : YUV
Chroma subsampling : 4:2:0
Bit depth : 8 bits
Scan type : Progressive
Bits/(Pixel*Frame) : 0.054
Stream size : 238 MiB (84%)
Default : Yes
Forced : No
Color range : Limited
Color primaries : BT.709
Transfer characteristics : BT.709
Matrix coefficients : BT.709

Audio
ID : 2
Format : E-AC-3
Format/Info : Enhanced Audio Coding 3
Format settings, Endianness : Big
Codec ID : A_EAC3
Duration : 28 min 2 s
Bit rate mode : Constant
Bit rate : 224 kb/s
Channel(s) : 2 channels
Channel positions : Front: L R
Sampling rate : 48.0 kHz
Frame rate : 187.500 FPS (256 SPF)
Compression mode : Lossy
Delay relative to video : 21 ms
Stream size : 44.9 MiB (16%)
Language : English
Service kind : Complete Main
Default : Yes
Forced : No

Text
ID : 3
Format : UTF-8
Codec ID : S_TEXT/UTF8
Codec ID/Info : UTF-8 Plain Text
Duration : 27 min 40 s
Bit rate : 121 b/s
Count of elements : 692
Stream size : 24.6 KiB (0%)
Title : SDH
Language : English
Default : No
Forced : No





Our Cartoon President S02E09


Our Cartoon President S02E09


Our Cartoon President S02E09


Our Cartoon President S02E09


Our Cartoon President S02E09

All episodes